Kirk Lightsey Harold Danko - Shorter by Two (1989)
MP3 FLAC WMA APE HD

Kirk Lightsey Harold Danko - Shorter by Two (1989)

Artist: Kirk Lightsey & Harold Danko
Title: Shorter by Two
Year Of Release: 1989
Label: Sunnyside Records[SSC 1004]
Genre: Jazz, Post Bop
Quality: FLAC (tracks + .cue,log) | MP3/320 kbps
Total Time: 55:40
Total Size: 214 MB(+3%) | 131 MB(+3%)
WebSite:

Tracklist

01. Ana Maria (Shorter) - 9:30
02. Delores (Shorter) - 4:27
03. Dance Cadaverous (Shorter) - 6:58
04. Pinocchio (Shorter) - 3:01
05. Marie Antoinette (Shorter) - 4:11
06. Armageddon (Shorter) - 3:40
07. Lester Left Town (Shorter) - 3:09
08. Witch Hunt (Shorter) - 5:50
09. Iris (Shorter) - 6:39
10. El Gaucho (Shorter) - 4:18
11. Nefertiti (Shorter) - 3:57

personnel :

Kirk Lightsey - piano
Harold Danko - piano
Exact Audio Copy V1.0 beta 3 from 29. August 2011

EAC extraction logfile from 21. August 2013, 12:59

Harold Danko & Kirk Lightsey / Shorter byTwo

Used drive : TSSTcorpDVD+-RW TS-H653G Adapter: 2 ID: 0

Read mode : Secure
Utilize accurate stream : Yes
Defeat audio cache : Yes
Make use of C2 pointers : No

Read offset correction : 6
Overread into Lead-In and Lead-Out : No
Fill up missing offset samples with silence : Yes
Delete leading and trailing silent blocks : No
Null samples used in CRC calculations : Yes
Used interface : Native Win32 interface for Win NT & 2000
Gap handling : Appended to previous track

Used output format : User Defined Encoder
Selected bitrate : 1024 kBit/s
Quality : High
Add ID3 tag : No
Command line compressor : C:Program Files (x86)Exact Audio CopyFLACFLAC.EXE
Additional command line options : -8 -V -T "ARTIST=%artist%" -T "TITLE=%title%" -T "ALBUM=%albumtitle%" -T "DATE=%year%" -T "TRACKNUMBER=%tracknr%" -T "GENRE=%genre%" -T "PERFORMER=%albuminterpret%" -T "COMPOSER=%composer%" %haslyrics%--tag-from-file=LYRICS="%lyricsfile%"%haslyrics% -T "ALBUMARTIST=%albumartist%" -T "ALBUM ARTIST=%albumartist%" -T "DISCNUMBER=%cdnumber%" -T "TOTALDISCS=%totalcds%" -T "TOTALTRACKS=%numtracks%" -T "COMMENT=%comment%" %source% -o %dest%


TOC of the extracted CD

Track | Start | Length | Start sector | End sector
---------------------------------------------------------
1 | 0:00.33 | 9:30.27 | 33 | 42809
2 | 9:30.60 | 4:27.15 | 42810 | 62849
3 | 13:58.00 | 6:57.53 | 62850 | 94177
4 | 20:55.53 | 3:01.02 | 94178 | 107754
5 | 23:56.55 | 4:10.43 | 107755 | 126547
6 | 28:07.23 | 3:40.22 | 126548 | 143069
7 | 31:47.45 | 3:08.43 | 143070 | 157212
8 | 34:56.13 | 5:49.67 | 157213 | 183454
9 | 40:46.05 | 6:38.43 | 183455 | 213347
10 | 47:24.48 | 4:18.25 | 213348 | 232722
11 | 51:42.73 | 3:56.67 | 232723 | 250489


Track 1

Filename D:EACRips1 - Ana Maria.wav

Pre-gap length 0:00:02.44

Peak level 65.5 %
Extraction speed 2.1 X
Track quality 99.9 %
Test CRC A9DC9AC7
Copy CRC A9DC9AC7
Accurately ripped (confidence 1) [07923771] (AR v1)
Copy OK

Track 2

Filename D:EACRips2 - Delores.wav

Pre-gap length 0:00:03.18

Peak level 68.5 %
Extraction speed 2.1 X
Track quality 100.0 %
Test CRC B5915F7A
Copy CRC B5915F7A
Accurately ripped (confidence 1) [BA44C7EA] (AR v1)
Copy OK

Track 3

Filename D:EACRips3 - Dance cadaverious.wav

Pre-gap length 0:00:01.85

Peak level 52.0 %
Extraction speed 2.2 X
Track quality 100.0 %
Test CRC CD4DA8B1
Copy CRC CD4DA8B1
Accurately ripped (confidence 1) [FB4A800E] (AR v1)
Copy OK

Track 4

Filename D:EACRips4 - Pinocchio.wav

Pre-gap length 0:00:04.86

Peak level 68.4 %
Extraction speed 2.0 X
Track quality 100.0 %
Test CRC A37D060F
Copy CRC A37D060F
Accurately ripped (confidence 1) [151826C2] (AR v1)
Copy OK

Track 5

Filename D:EACRips5 - Marie Antoinette.wav

Pre-gap length 0:00:04.69

Peak level 88.0 %
Extraction speed 2.1 X
Track quality 100.0 %
Test CRC BB0E445D
Copy CRC BB0E445D
Accurately ripped (confidence 1) [5F45AE6F] (AR v1)
Copy OK

Track 6

Filename D:EACRips6 - Armageddon.wav

Pre-gap length 0:00:03.76

Peak level 77.6 %
Extraction speed 2.0 X
Track quality 100.0 %
Test CRC 50ED356E
Copy CRC 50ED356E
Accurately ripped (confidence 1) [D4249066] (AR v1)
Copy OK

Track 7

Filename D:EACRips7 - Lester left town.wav

Pre-gap length 0:00:04.05

Peak level 62.1 %
Extraction speed 1.7 X
Track quality 99.9 %
Test CRC CBF961CC
Copy CRC CBF961CC
Accurately ripped (confidence 1) [D5F219BA] (AR v1)
Copy OK

Track 8

Filename D:EACRips8 - Witch hunt.wav

Pre-gap length 0:00:05.42

Peak level 80.3 %
Extraction speed 2.0 X
Track quality 99.9 %
Test CRC C5EEB3B7
Copy CRC C5EEB3B7
Accurately ripped (confidence 1) [ACE05CB2] (AR v1)
Copy OK

Track 9

Filename D:EACRips9 - Iris.wav

Pre-gap length 0:00:01.78

Peak level 34.2 %
Extraction speed 2.2 X
Track quality 100.0 %
Test CRC 844DEAA6
Copy CRC 844DEAA6
Accurately ripped (confidence 1) [8995FB29] (AR v1)
Copy OK

Track 10

Filename D:EACRips10 - El gaucho.wav

Pre-gap length 0:00:02.66

Peak level 73.8 %
Extraction speed 2.1 X
Track quality 100.0 %
Test CRC BA35F501
Copy CRC BA35F501
Accurately ripped (confidence 1) [3BDA9346] (AR v1)
Copy OK

Track 11

Filename D:EACRips11 - Nefertiti.wav

Pre-gap length 0:00:04.69

Peak level 40.1 %
Extraction speed 2.1 X
Track quality 100.0 %
Test CRC 510E9AC4
Copy CRC 510E9AC4
Accurately ripped (confidence 1) [567B61D7] (AR v1)
Copy OK


All tracks accurately ripped

No errors occurred

End of status report

==== Log checksum CF23D05E8B5178A19DE223E68DDE982A298BB29A2A10D8E676BF74D7887B727F ====




FLAC



MP3





Alternative download links

Turbobit Turbobit

Related MP3 FLAC to Kirk Lightsey Harold Danko - Shorter by Two (1989)
Feedback
All rights reserved.
WEBBG.com © 2000-2018