Ray Brown - Dont Get Sassy (1994)
MP3 FLAC WMA APE HD

Ray Brown - Dont Get Sassy (1994)

  • Genre: Jazz, Music, FLAC / APE
  • Formats: MP3 FLAC WMA HD APE
  • Album Size: 1420 mb.
  • Archive: ZIP RAR
Artist: Ray Brown
Title: Don't Get Sassy
Year Of Release: 1994
Label: Telarc[CD-83368]
Genre: Jazz, Bebop
Quality: FLAC (image + .cue,log,scans)
Total Time: 63:01
Total Size: 337 MB (+3%)
WebSite:

Tracklist
01 - Don't get Sassy
02 - Everything I love
03 - Kelly's blues
04 - Tanga
05 - When you go
06 - Brown's new blues
07 - The good life
08 - Con alma
09 - Ellington mMedley = Rain check - In a sentimental mood - Squatty roo
personnel:
Benny Green - Piano
Jeff Hamilton - Drums
Ray Brown - Bass
Bassist Ray Brown, pianist Benny Green, and drummer Jeff Hamilton make for a perfect team on their Telarc CD. The tight yet swinging arrangements are full of subtle surprises and serve as a perfect format for the players, particularly Green. Highlights include Thad Jones' "Don't Get Sassy," Oscar Peterson's "Kelly's Blues," "Tanga," "Brown's New Blues," and a three-song Duke Ellington medley. Recommended.
Exact Audio Copy V0.99 prebeta 4 from 23. January 2008
EAC extraction logfile from 10. October 2009, 22:18
Brown Trio, Ray / Don't get Sassy
Used drive : PLEXTOR DVDR PX-800A Adapter: 1 ID: 1
Read mode : Secure
Utilize accurate stream : Yes
Defeat audio cache : Yes
Make use of C2 pointers : No
Read offset correction : 48
Overread into Lead-In and Lead-Out : No
Fill up missing offset samples with silence : Yes
Delete leading and trailing silent blocks : No
Null samples used in CRC calculations : Yes
Used interface : Installed external ASPI interface
Used output format : Internal WAV Routines
Sample format : 44.100 Hz; 16 Bit; Stereo
TOC of the extracted CD
Track | Start | Length | Start sector | End sector
---------------------------------------------------------
1 | 0:00.00 | 5:48.30 | 0 | 26129
2 | 5:48.30 | 5:31.10 | 26130 | 50964
3 | 11:19.40 | 6:45.35 | 50965 | 81374
4 | 18:05.00 | 4:18.62 | 81375 | 100786
5 | 22:23.62 | 6:16.38 | 100787 | 129024
6 | 28:40.25 | 7:37.30 | 129025 | 163329
7 | 36:17.55 | 8:23.70 | 163330 | 201124
8 | 44:41.50 | 7:14.27 | 201125 | 233701
9 | 51:56.02 | 11:04.73 | 233702 | 283574
Range status and errors
Selected range
Filename G:GrabRay Brown - Don't Get SassyDon't get Sassy.wav
Peak level 100.0 %
Range quality 100.0 %
Copy CRC BC1F830E
Copy OK
No errors occurred

AccurateRip summary

Track 1 not present in database
Track 2 not present in database
Track 3 not present in database
Track 4 not present in database
Track 5 not present in database
Track 6 not present in database
Track 7 not present in database
Track 8 not present in database
Track 9 not present in database

None of the tracks are present in the AccurateRip database
End of status report




Alternative download links

Turbobit

Related MP3 FLAC to Ray Brown - Dont Get Sassy (1994)
Feedback
All rights reserved.
WEBBG.com © 2000-2018