Peter Brotzmann Jorg Fischer - In Wiesbaden (2012)
MP3 FLAC WMA APE HD

Peter Brotzmann Jorg Fischer - In Wiesbaden (2012)

  • Genre: Jazz, Music, FLAC / APE
  • Formats: MP3 FLAC WMA HD APE
  • Album Size: 1753 mb.
  • Archive: ZIP RAR
Artist: Peter Brotzmann & Jorg Fischer
Title: In Wiesbaden
Year Of Release: 2012
Label: NotTwo[MW 877-2]
Genre: Jazz, Free Jazz
Quality: FLAC (tracks + .cue,log,scans) | MP3/320 kbps
Total Time: 61:26
Total Size: 411 MB+3%) | 145MB(+3%)
WebSite:

Tracklist

1. Productive Cough 8:40
2. The Steady Hand as Planned 10:08
3. Buddy Wrapping 19:51
4. Song for Fred 6:22
5. Cute Cuts 16:25

personnel :

Peter Brotzmann — alto and tenor sax, clarinet, taragato
Jorg Fischer — drums
Exact Audio Copy V1.0 beta 1 from 15. November 2010

EAC extraction logfile from 29. April 2014, 13:18

Peter Brötzmann & Jörg Fischer / in Wiesbaden

Used drive : Optiarc DVD RW AD-7710H Adapter: 1 ID: 0

Read mode : Secure
Utilize accurate stream : Yes
Defeat audio cache : Yes
Make use of C2 pointers : No

Read offset correction : 48
Overread into Lead-In and Lead-Out : No
Fill up missing offset samples with silence : Yes
Delete leading and trailing silent blocks : No
Null samples used in CRC calculations : Yes
Used interface : Native Win32 interface for Win NT & 2000
Gap handling : Appended to previous track

Used output format : User Defined Encoder
Selected bitrate : 896 kBit/s
Quality : High
Add ID3 tag : No
Command line compressor : C:Program FilesExact Audio CopyFLACFLAC.EXE
Additional command line options : -8 -V -T "ARTIST=%a" -T "TITLE=%t" -T "ALBUM=%g" -T "DATE=%y" -T "TRACKNUMBER=%n" -T "GENRE=%m" -T "COMMENT=%e" %j--picture="%i"%j %s -o %d


TOC of the extracted CD

Track | Start | Length | Start sector | End sector
---------------------------------------------------------
1 | 0:00.00 | 8:40.42 | 0 | 39041
2 | 8:40.42 | 10:08.02 | 39042 | 84643
3 | 18:48.44 | 19:51.29 | 84644 | 173997
4 | 38:39.73 | 6:22.22 | 173998 | 202669
5 | 45:02.20 | 16:25.04 | 202670 | 276548


Track 1

Filename C:MY RIPS1 - Productive Cough.wav

Pre-gap length 0:00:02.00

Peak level 97.7 %
Extraction speed 3.1 X
Track quality 100.0 %
Test CRC EA1037A3
Copy CRC EA1037A3
Accurately ripped (confidence 1) [3B4CBE47]
Copy OK

Track 2

Filename C:MY RIPS2 - The Steady Hand as Planned.wav

Peak level 97.7 %
Extraction speed 3.9 X
Track quality 100.0 %
Test CRC 27A58428
Copy CRC 27A58428
Accurately ripped (confidence 1) [3407F44C]
Copy OK

Track 3

Filename C:MY RIPS3 - Buddy Wrapping.wav

Peak level 97.7 %
Extraction speed 4.9 X
Track quality 100.0 %
Test CRC 31504F88
Copy CRC 31504F88
Accurately ripped (confidence 1) [56B75B03]
Copy OK

Track 4

Filename C:MY RIPS4 - Song for Fred.wav

Peak level 97.7 %
Extraction speed 5.3 X
Track quality 100.0 %
Test CRC 59E1DC5A
Copy CRC 59E1DC5A
Accurately ripped (confidence 1) [B8FF5912]
Copy OK

Track 5

Filename C:MY RIPS5 - Cute Cuts.wav

Peak level 97.7 %
Extraction speed 6.0 X
Track quality 100.0 %
Test CRC 35C3AAFC
Copy CRC 35C3AAFC
Accurately ripped (confidence 1) [78075EC5]
Copy OK


All tracks accurately ripped

No errors occurred

End of status report

==== Log checksum F5B7E42A129381EFC03575D28F2869B1C5D710F95DEE5297EE65167854ECF7FA ====



FLAC



MP3






Alternative download links

Turbobit Turbobit

Related MP3 FLAC to Peter Brotzmann Jorg Fischer - In Wiesbaden (2012)
Feedback
All rights reserved.
WEBBG.com © 2000-2018