Gregg Karukas - Youll Know its Me (1995)
MP3 FLAC WMA APE HD

Gregg Karukas - Youll Know its Me (1995)

Artist: Gregg Karukas
Title: You'll Know it's Me
Year Of Release: 1995
Label: Fahrenheit Records[FR9510-2]
Genre: Jazz, Smooth Jazz, Jazz Fusion
Quality: FLAC (tracks + .cue,log,scans)
Total Time: 53:11
Total Size: 365 MB(+3%)
WebSite:

Tracklist
01. Back on the Boardwalk (4:24)
02. Welcome Home (4:38)
03. You'll Know it's Me (5:26)
04. Two Hearts Make One (4:57)
05. Del Mar Run (6:07)
06. Learning to Dance (4:43)
07. Soul Sermon (3:57)
08. Avalon (4:25)
09. Love Like This (4:35)
10. Tomorrow We Sail (5:24)
11. Barracude Bob (4:43)
After moving to Los Angeles from the Maryland/DC area in the mid '80s, Gregg Karukas quickly developed a reputation as a solid keyboardist/arranger as he found himself performing with the likes of Patti Austin, Shelby Flint, Richard Elliot, Melissa Manchester, Ronnie Laws, Sergio Mendes, Ricardo Silveira and Brenda Russell….and his own band which featured a young, undiscovered sax player named Dave Koz.
Exact Audio Copy V0.99 prebeta 4 from 23. January 2008
EAC extraction logfile from 9. January 2009, 19:14
Gregg Karukas / You'll Know it's Me
Used drive : _NEC DVD_RW ND-4570A Adapter: 1 ID: 0
Read mode : Secure
Utilize accurate stream : Yes
Defeat audio cache : Yes
Make use of C2 pointers : No
Read offset correction : 48
Overread into Lead-In and Lead-Out : No
Fill up missing offset samples with silence : Yes
Delete leading and trailing silent blocks : No
Null samples used in CRC calculations : Yes
Used interface : Installed external ASPI interface
Gap handling : Appended to previous track
Used output format : Internal WAV Routines
Sample format : 44.100 Hz; 16 Bit; Stereo
TOC of the extracted CD
Track | Start | Length | Start sector | End sector
---------------------------------------------------------
1 | 0:00.00 | 4:24.31 | 0 | 19830
2 | 4:24.31 | 4:38.62 | 19831 | 40742
3 | 9:03.18 | 5:26.31 | 40743 | 65223
4 | 14:29.49 | 4:57.39 | 65224 | 87537
5 | 19:27.13 | 6:07.38 | 87538 | 115100
6 | 25:34.51 | 4:43.69 | 115101 | 136394
7 | 30:18.45 | 3:57.20 | 136395 | 154189
8 | 34:15.65 | 4:25.64 | 154190 | 174128
9 | 38:41.54 | 4:35.41 | 174129 | 194794
10 | 43:17.20 | 5:24.64 | 194795 | 219158
11 | 48:42.09 | 4:43.27 | 219159 | 240410
Track 1
Filename O: TorrentsGregg Karukas - 1995 You'll Know it's Me1 - Back on the Boardwalk.wav
Pre-gap length 0:00:02.00
Peak level 99.9 %
Track quality 100.0 %
Test CRC 09C74B1D
Copy CRC 09C74B1D
Track not present in AccurateRip database
Copy OK
Track 2
Filename O: TorrentsGregg Karukas - 1995 You'll Know it's Me2 - Welcome Home.wav
Pre-gap length 0:00:00.41
Peak level 98.5 %
Track quality 100.0 %
Test CRC BC766EA0
Copy CRC BC766EA0
Track not present in AccurateRip database
Copy OK
Track 3
Filename O: TorrentsGregg Karukas - 1995 You'll Know it's Me3 - You'll Know it's Me.wav
Pre-gap length 0:00:00.92
Peak level 98.5 %
Track quality 99.9 %
Test CRC 8E92FD5D
Copy CRC 8E92FD5D
Track not present in AccurateRip database
Copy OK
Track 4
Filename O: TorrentsGregg Karukas - 1995 You'll Know it's Me4 - Two Hearts Make One.wav
Pre-gap length 0:00:00.90
Peak level 98.5 %
Track quality 99.9 %
Test CRC 235C5015
Copy CRC 9AB6AC9C
Track not present in AccurateRip database
Copy OK
Track 5
Filename O: TorrentsGregg Karukas - 1995 You'll Know it's Me5 - Del Mar Run.wav
Pre-gap length 0:00:01.69
Peak level 100.0 %
Track quality 100.0 %
Test CRC 67380909
Copy CRC 67380909
Track not present in AccurateRip database
Copy OK
Track 6
Filename O: TorrentsGregg Karukas - 1995 You'll Know it's Me6 - Learning to Dance.wav
Peak level 100.0 %
Track quality 99.9 %
Test CRC 059F18D9
Copy CRC 059F18D9
Track not present in AccurateRip database
Copy OK
Track 7
Filename O: TorrentsGregg Karukas - 1995 You'll Know it's Me7 - Soul Sermon.wav
Pre-gap length 0:00:00.82
Peak level 91.8 %
Track quality 100.0 %
Test CRC 41CC4791
Copy CRC 41CC4791
Track not present in AccurateRip database
Copy OK
Track 8
Filename O: TorrentsGregg Karukas - 1995 You'll Know it's Me8 - Avalon.wav
Peak level 98.2 %
Track quality 100.0 %
Test CRC 739E05CF
Copy CRC 739E05CF
Track not present in AccurateRip database
Copy OK
Track 9
Filename O: TorrentsGregg Karukas - 1995 You'll Know it's Me9 - Love Like This.wav
Pre-gap length 0:00:02.06
Peak level 100.0 %
Track quality 100.0 %
Test CRC F136B1E0
Copy CRC F136B1E0
Track not present in AccurateRip database
Copy OK
Track 10
Filename O: TorrentsGregg Karukas - 1995 You'll Know it's Me10 - Tomorrow We Sail.wav
Pre-gap length 0:00:01.21
Peak level 100.0 %
Track quality 100.0 %
Test CRC 969FE2DC
Copy CRC 969FE2DC
Track not present in AccurateRip database
Copy OK
Track 11
Filename O: TorrentsGregg Karukas - 1995 You'll Know it's Me11 - Barracude Bob.wav
Pre-gap length 0:00:01.70
Peak level 100.0 %
Track quality 99.9 %
Test CRC E00723FE
Copy CRC E00723FE
Track not present in AccurateRip database
Copy OK
None of the tracks are present in the AccurateRip database
No errors occurred
End of status report
------------------------------------------------------------
Exact Audio Copy V0.99 prebeta 4 from 23. January 2008
EAC extraction logfile from 9. January 2009, 19:18
Gregg Karukas / You'll Know it's Me
Used drive : _NEC DVD_RW ND-4570A Adapter: 1 ID: 0
Read mode : Secure
Utilize accurate stream : Yes
Defeat audio cache : Yes
Make use of C2 pointers : No
Read offset correction : 48
Overread into Lead-In and Lead-Out : No
Fill up missing offset samples with silence : Yes
Delete leading and trailing silent blocks : No
Null samples used in CRC calculations : Yes
Used interface : Installed external ASPI interface
Gap handling : Appended to previous track
Used output format : Internal WAV Routines
Sample format : 44.100 Hz; 16 Bit; Stereo
TOC of the extracted CD
Track | Start | Length | Start sector | End sector
---------------------------------------------------------
1 | 0:00.00 | 4:24.31 | 0 | 19830
2 | 4:24.31 | 4:38.62 | 19831 | 40742
3 | 9:03.18 | 5:26.31 | 40743 | 65223
4 | 14:29.49 | 4:57.39 | 65224 | 87537
5 | 19:27.13 | 6:07.38 | 87538 | 115100
6 | 25:34.51 | 4:43.69 | 115101 | 136394
7 | 30:18.45 | 3:57.20 | 136395 | 154189
8 | 34:15.65 | 4:25.64 | 154190 | 174128
9 | 38:41.54 | 4:35.41 | 174129 | 194794
10 | 43:17.20 | 5:24.64 | 194795 | 219158
11 | 48:42.09 | 4:43.27 | 219159 | 240410
Track 4
Filename O: TorrentsGregg Karukas - 1995 You'll Know it's Me4 - Two Hearts Make One.wav
Pre-gap length 0:00:00.90
Peak level 98.5 %
Track quality 99.9 %
Test CRC 9AB6AC9C
Copy CRC 9AB6AC9C
Track not present in AccurateRip database
Copy OK
None of the tracks are present in the AccurateRip database
No errors occurred
End of status report




Alternative download links

Turbobit

Related MP3 FLAC to Gregg Karukas - Youll Know its Me (1995)
Feedback
All rights reserved.
WEBBG.com © 2000-2018