Aretha Franklin - Tiny Sparrow: The Bobby Scott Sessions (19632011) HDtracks
MP3 FLAC WMA APE HD

Aretha Franklin - Tiny Sparrow: The Bobby Scott Sessions (19632011) HDtracks

Artist: Aretha Franklin
Title: Tiny Sparrow: The Bobby Scott Sessions
Year Of Release: 2011
Label: Columbia/Legacy
Genre: R&B, Jazz, Soul-Jazz, Deep Soul, Vocal
Quality: FLAC (tracks) [24bit/96kHz]
Total Time: 37:33
Total Size: 710,99 Gb (Front Cover)
WebSite:

At Columbia, Franklin lived an entirely different musical life than she would at Atlantic, one that was grounded in jazz and the Great American Songbook, revealing a gigantic vocal talent that betrayed potent hints of the tectonic soul shift to come at Atlantic. It takes precious little imagination to conclude that Franklin was as important to American music in the middle-to-late 1960s as singer/pianist Ray Charles was the decade before, the two star ascents crossing in creative eclipse. Franklin gave potent voice to women in the soul and rock arenas, enabling the flourishing of the Tina Turner, Janet Jackson and Jennifer Hudson generations. Her parallel to Charles is not incidental, sharing the visions of Jerry Wexler and Ahmet Ertegun, the operators of the Atlantic musical collider that mashed up gospel and the blues, creating r&b and soul. But Franklin had a hefty musical career before she was crowned the "Queen of Soul" by an un-named MC in 1965. Before Atlantic Records, Muscle Shoals, Wexler and the Ertegun Brothers, there was Uber-AR man John Hammond and five productive years at Columbia Records. Hammond, whose musical influence spanned the center of the 20th century, touching the work of artists from Robert Johnson to Stevie Ray Vaughan, brought Franklin to Columbia with the intention of continuing the label's success in jazz vocals experienced with Billie Holiday. Franklin's Columbia output can in 2011 be considered a sublime failure when compared to her Atlantic material. It was excellent music resulting from misapplied direction. Hammond admitted that the label failed to recognise and exploit Franklin's gospel roots in her secular output. A mistake the Atlantic crew took full advantage of later. However, the result of Franklin's association with Columbia did yield a creatively and quantitatively rich catalog, showing Franklin as a fully developed and accomplished performer when she came to New York City from her father, Rev. L.C. Franklin's Detroit Baptist Church. Her Columbia material included seven original LPs, each expanded here with alternate mixes, making up the roast beef of the set. The gravy comes with the previously unreleased or differently released material, including Franklin collaborations with producers Bobby Scott and Clyde Otis yielding Tiny Sparrow: The Bobby Scott Sessions and Take A Look: The Clyde Otis Sessions , material either never released or released only as singles.
Release of this HDtracks edition: 2011 [Label: Columbia/Legacy]
(p) 2011 Sony Music Entertainment.

Credits:

Vocals - Aretha Franklin
Producer - Bobby Scott


Tracklist:

Original Unreleased Album (Remastered):

01. Here Today And Gone Tomorrow (03:30)
02. Please Answer Me (Once In A While) (02:33)
03. Harbor Lights (02:52)
04. I May Never Get To Heaven (03:29)
05. Moon River (02:13)
06. I Won't Cry Anymore (02:50)
07. Bill Bailey, Won't You Please Come Home (02:21)
08. My Little Brown Book (03:20)
09. Tiny Sparrow (02:53)
10. Johnny (03:07)
11. Looking Through A Tear (03:05)

Bonus Tracks (Mono Mixes):
12. Bill Bailey, Won't You Please Come Home (02:21)
13. Johnny (02:59)

--------------------------------------------------------------------------------
Analyzed: Aretha Franklin / Tiny Sparrow The Bobby Scott Sessions
--------------------------------------------------------------------------------

DR Peak RMS Duration Track
--------------------------------------------------------------------------------
DR11 -0.83 dB -17.53 dB 3:30 01-Here Today and Gone Tomorrow (Remastered)
DR12 0.00 dB -16.38 dB 2:33 02-Please Answer Me (Once in a While) (Remastered)
DR12 -2.98 dB -19.45 dB 2:52 03-Harbor Lights (Remastered)
DR12 -0.20 dB -15.66 dB 3:29 04-I May Never Get to Heaven (Remastered)
DR12 -0.21 dB -14.84 dB 2:13 05-Moon River (Remastered)
DR10 -0.60 dB -16.97 dB 2:50 06-I Won't Cry Anymore (Remastered)
DR12 -0.15 dB -15.05 dB 2:21 07-Bill Bailey, Won't You Please Come Home (Remastered)
DR11 -2.61 dB -18.18 dB 3:20 08-My Little Brown Book (Remastered)
DR11 -2.36 dB -17.27 dB 2:53 09-Tiny Sparrow (Remastered)
DR10 -3.01 dB -18.22 dB 3:07 10-Johnny (Remastered)
DR9 -3.47 dB -17.16 dB 3:05 11-Looking Through a Tear (Remastered)
DR10 -0.50 dB -12.19 dB 2:21 12-Bill Bailey, Won't You Please Come Home (Mono Mix)
DR9 -2.62 dB -14.19 dB 2:59 13-Johnny (Mono Mix)
--------------------------------------------------------------------------------

Number of tracks: 13
Official DR value: DR11

Samplerate: 96000 Hz
Channels: 2
Bits per sample: 24
Bitrate: 1416 kbps
Codec: FLAC
================================================================================
FLAC 24/96 DOWNLOAD ~ Download 24/96 FLAC


password: BlondStyle



Alternative download links

Turbobit

Related MP3 FLAC to Aretha Franklin - Tiny Sparrow: The Bobby Scott Sessions (19632011) HDtracks
Feedback
All rights reserved.
WEBBG.com © 2000-2018