Paul Taylor - Ladies Choice (2007) FLAC
MP3 FLAC WMA APE HD

Paul Taylor - Ladies Choice (2007) FLAC

  • Genre: Jazz, Smooth Jazz, R&B
  • Formats: MP3 FLAC WMA HD APE
  • Album Size: 1822 mb.
  • Archive: ZIP RAR
Artist: Paul Taylor
Title Of Album: Ladies' Choice
Year Of Release: 2007
Genre: Jazz / Smooth Jazz
Label: Peak Records
Format: FLAC
Bitrate: Lossless (tracks +.cue +.log)
Tracks: 12
Total Time: 53:42 min
Total Size: 356 MB
WebSite:
Tracklist:
01. Ladies Choice [04:56]
02. I Want To Be Loved (By You) [04:53]
03. Here We Go [04:35]
04. How Did You Know [04:07]
05. Streamline [04:36]
06. Long Distance Relationship [04:30]
07. Summer's End [03:45]
08. A Love Of Your Own [05:10]
09. Open Your Eyes [04:43]
10. Overdrive [04:01]
11. Point Of View [04:01]
12. Paradise Valley (Bonus Track) [04:27]
Discovered by Keiko Matsui, saxophonist Paul Taylor has proven to be a capable heir to the chilled-sax tradition of Dave Sanborn and Kirk Whalum. This time around, it's LADIES CHOICE, and Taylor has opted for a gregarious mix of smooth jazz and creamy R&B that's alternately mellow and danceable. Taylor's fluid, melodic approach meshes beautifully with the guest female voices of Regina Belle, Latoya London, Terry Dexter, and Lauren Evans.
Exact Audio Copy V0.99 prebeta 5 from 4. May 2009
EAC extraction logfile from 8. July 2011, 20:08
Paul Taylor / Ladies Choice (Circuit City Version)
Used drive : Optiarc DVD RW AD-5200A Adapter: 0 ID: 0
Read mode : Secure
Utilize accurate stream : Yes
Defeat audio cache : Yes
Make use of C2 pointers : No
Read offset correction : 48
Overread into Lead-In and Lead-Out : No
Fill up missing offset samples with silence : Yes
Delete leading and trailing silent blocks : No
Null samples used in CRC calculations : Yes
Used interface : Native Win32 interface for Win NT & 2000
Gap handling : Appended to previous track
Used output format : User Defined Encoder
Selected bitrate : 1024 kBit/s
Quality : High
Add ID3 tag : No
Command line compressor : C:Program FilesExact Audio CopyFLACFLAC.EXE
Additional command line options : -8 -V -T "ARTIST=%a" -T "TITLE=%t" -T "ALBUM=%g" -T "DATE=%y" -T "TRACKNUMBER=%n" -T "GENRE=%m" -T "COMMENT=EAC FLAC -8" %s
TOC of the extracted CD
Track | Start | Length | Start sector | End sector
---------------------------------------------------------
1 | 0:00.00 | 4:56.65 | 0 | 22264
2 | 4:56.65 | 4:52.23 | 22265 | 44187
3 | 9:49.13 | 4:35.33 | 44188 | 64845
4 | 14:24.46 | 4:07.24 | 64846 | 83394
5 | 18:31.70 | 4:35.22 | 83395 | 104041
6 | 23:07.17 | 4:30.15 | 104042 | 124306
7 | 27:37.32 | 3:45.33 | 124307 | 141214
8 | 31:22.65 | 5:09.50 | 141215 | 164439
9 | 36:32.40 | 4:43.30 | 164440 | 185694
10 | 41:15.70 | 4:00.13 | 185695 | 203707
11 | 45:16.08 | 4:02.36 | 203708 | 221893
12 | 49:18.44 | 4:25.48 | 221894 | 241816
Track 1
Filename E:MUSICWAV1. Ladies Choice.wav
Pre-gap length 0:00:02.00
Peak level 99.9 %
Track quality 99.9 %
Test CRC C2224B17
Copy CRC C2224B17
Cannot be verified as accurate (confidence 1) [B6871A39], AccurateRip returned [3BB1CCBD]
Copy OK
Track 2
Filename E:MUSICWAV2. I Want To Be Loved (By You) F, Latoya London.wav
Peak level 99.9 %
Track quality 100.0 %
Test CRC FBD49C74
Copy CRC FBD49C74
Cannot be verified as accurate (confidence 1) [FB3AC0BF], AccurateRip returned [F611AC75]
Copy OK
Track 3
Filename E:MUSICWAV3. Here We Go.wav
Peak level 99.9 %
Track quality 100.0 %
Test CRC E402839F
Copy CRC E402839F
Cannot be verified as accurate (confidence 1) [7E6E18E8], AccurateRip returned [F774DCC7]
Copy OK
Track 4
Filename E:MUSICWAV4. How Did You Know F, Regina Belle.wav
Peak level 99.9 %
Track quality 100.0 %
Test CRC 151EF08C
Copy CRC 151EF08C
Cannot be verified as accurate (confidence 1) [6E2EBFAA], AccurateRip returned [A6CE1885]
Copy OK
Track 5
Filename E:MUSICWAV5. Streamline.wav
Peak level 99.9 %
Track quality 99.9 %
Test CRC 636D14F3
Copy CRC 636D14F3
Cannot be verified as accurate (confidence 1) [79A70DA4], AccurateRip returned [69E19700]
Copy OK
Track 6
Filename E:MUSICWAV6. Long Distance Relationship F, Terry Dexter.wav
Peak level 99.9 %
Track quality 100.0 %
Test CRC 18A0F1C1
Copy CRC 18A0F1C1
Cannot be verified as accurate (confidence 1) [3579EA37], AccurateRip returned [142A8D39]
Copy OK
Track 7
Filename E:MUSICWAV7. Summer's End.wav
Peak level 99.9 %
Track quality 99.9 %
Test CRC DC7FDC87
Copy CRC DC7FDC87
Cannot be verified as accurate (confidence 1) [9F606EFF], AccurateRip returned [C91619C1]
Copy OK
Track 8
Filename E:MUSICWAV8. A Love Of Your Own F, Lauren Evans.wav
Peak level 99.9 %
Track quality 100.0 %
Test CRC 487D735D
Copy CRC 487D735D
Cannot be verified as accurate (confidence 1) [843D1DBC], AccurateRip returned [E6F9CEFC]
Copy OK
Track 9
Filename E:MUSICWAV9. Open Your Eyes F, Regina Belle.wav
Peak level 99.9 %
Track quality 100.0 %
Test CRC 932A26C7
Copy CRC 932A26C7
Cannot be verified as accurate (confidence 1) [5DBD120B], AccurateRip returned [46981A3F]
Copy OK
Track 10
Filename E:MUSICWAV10. Overdrive.wav
Peak level 99.9 %
Track quality 100.0 %
Test CRC 7C55871B
Copy CRC 7C55871B
Cannot be verified as accurate (confidence 1) [4435721B], AccurateRip returned [1729D9E7]
Copy OK
Track 11
Filename E:MUSICWAV11. Point Of View.wav
Peak level 99.9 %
Track quality 100.0 %
Test CRC 4727D220
Copy CRC 4727D220
Cannot be verified as accurate (confidence 1) [1352E93D], AccurateRip returned [BB9115AF]
Copy OK
Track 12
Filename E:MUSICWAV12. Paradise Valley (Circuit City Exclusive Bonus Track).wav
Pre-gap length 0:00:01.37
Peak level 99.9 %
Track quality 99.9 %
Test CRC D9E0A884
Copy CRC D9E0A884
Cannot be verified as accurate (confidence 1) [CAF9B597], AccurateRip returned [325D6B75]
Copy OK
No tracks could be verified as accurate
You may have a different pressing from the one(s) in the database
No errors occurred
End of status report
FileSonic.com
Letitbit.net



Alternative download links

DOWNLOAD

Related MP3 FLAC to Paul Taylor - Ladies Choice (2007) FLAC
Feedback
All rights reserved.
WEBBG.com © 2000-2018