Chet Baker - Chet Baker Sings Again (1986)
MP3 FLAC WMA APE HD

Chet Baker - Chet Baker Sings Again (1986)

  • Genre: Jazz, Music, FLAC / APE
  • Formats: MP3 FLAC WMA HD APE
  • Album Size: 1706 mb.
  • Archive: ZIP RAR
Artist: Chet Baker
Title: Chet Baker Sings Again
Year Of Release: 1986
Label: Timeless[CDSJP 238]
Genre: Jazz, Cool, Bop
Quality: FLAC (image + .cue,log,scans)
Total Time: 44:51
Total Size: 237 MB(+5%)
WebSite:

Tracklist

01 - All Of You
02 - Body And Soul
03 - Look For The Silver Lining
04 - I Can't Get Started
05 - My Funny Valentine
06 - Alone Together
07 - Someone To Watch Over Me
08 - How Deep Is The Ocean

personnel :

Chet Baker - trumpet, vocal
Michel Grallier - piano
Ricardo Del Fra - bass
John Engels - drums
Exact Audio Copy V1.0 beta 2 from 29. April 2011

EAC extraction logfile from 24. March 2012, 23:48

Chet Baker / Chet Baker Sings Again

Used drive : HL-DT-STDVD+-RW GSA-H31L Adapter: 1 ID: 0

Read mode : Secure
Utilize accurate stream : Yes
Defeat audio cache : Yes
Make use of C2 pointers : No

Read offset correction : 102
Overread into Lead-In and Lead-Out : No
Fill up missing offset samples with silence : Yes
Delete leading and trailing silent blocks : No
Null samples used in CRC calculations : Yes
Used interface : Native Win32 interface for Win NT & 2000

Used output format : User Defined Encoder
Selected bitrate : 768 kBit/s
Quality : High
Add ID3 tag : No
Command line compressor : C:Program FilesExact Audio CopyFlacflac.exe
Additional command line options : -8 -V -T "ARTIST=%artist%" -T "TITLE=%title%" -T "ALBUM=%albumtitle%" -T "DATE=%year%" -T "TRACKNUMBER=%tracknr%" -T "TOTALTRACKS=%numtracks%" -T "GENRE=%genre%" -T "ALBUMARTIST=%albumartist%" -T "ALBUM ARTIST=%albumartist%


TOC of the extracted CD

Track | Start | Length | Start sector | End sector
---------------------------------------------------------
1 | 0:00.00 | 4:43.00 | 0 | 21224
2 | 4:43.00 | 6:32.00 | 21225 | 50624
3 | 11:15.00 | 3:55.00 | 50625 | 68249
4 | 15:10.00 | 6:55.00 | 68250 | 99374
5 | 22:05.00 | 7:15.00 | 99375 | 131999
6 | 29:20.00 | 6:18.00 | 132000 | 160349
7 | 35:38.00 | 5:23.00 | 160350 | 184574
8 | 41:01.00 | 3:50.10 | 184575 | 201834


Range status and errors

Selected range

Filename F:RipsChet Baker - Chet Baker Sings Again.wav

Peak level 100.0 %
Extraction speed 2.7 X
Range quality 100.0 %
Test CRC F19CD27D
Copy CRC F19CD27D
Copy OK

No errors occurred


AccurateRip summary

Track 1 accurately ripped (confidence 4) [15C061EB] (AR v1)
Track 2 accurately ripped (confidence 4) [7D8786BD] (AR v1)
Track 3 accurately ripped (confidence 4) [39B4948B] (AR v1)
Track 4 accurately ripped (confidence 4) [9F2F708B] (AR v1)
Track 5 accurately ripped (confidence 4) [D752B232] (AR v1)
Track 6 accurately ripped (confidence 4) [D7D52C88] (AR v1)
Track 7 accurately ripped (confidence 4) [7AFA0B71] (AR v1)
Track 8 accurately ripped (confidence 4) [89969630] (AR v1)

All tracks accurately ripped

End of status report

==== Log checksum AA7E2A6C53EC8E40058F4FBF36868B8DA442F7E56CF9964D597B7F4A84A3F519 ====









Alternative download links

Turbobit

Related MP3 FLAC to Chet Baker - Chet Baker Sings Again (1986)
Feedback
All rights reserved.
WEBBG.com © 2000-2018