Medeski Martin Wood - Combustication (1998)
MP3 FLAC WMA APE HD

Medeski Martin Wood - Combustication (1998)

  • Genre: Jazz, Other, FLAC / APE
  • Formats: MP3 FLAC WMA HD APE
  • Album Size: 1704 mb.
  • Archive: ZIP RAR
Artist: Medeski Martin & Wood
Title Of Album: Combustication
Year Of Release: 1998
Label: Capitol Records, Inc.
Genre: Jazz, Post-Bop
Quality: FLAC (tracks+.cue) + log
Bitrate: Lossless
Total Time: 1:08:44
Total Size: 501 Mb
Medeski Martin & Wood (or MMW) is an American jazz trio formed in 1991, consisting of John Medeski on keyboards and piano, Billy Martin on drums and percussion, and Chris Wood on double bass and bass guitar.
The band draws on influences from a number of musical traditions, from funk to Hip Hop, and is known for an unconventional style sometimes described as "avant-groove".
MMW has found moderate mainstream success—often working with noted guitarist John Scofield—and touring on the jam band circuit.
Tracklist:
01. Sugar Craft - 3:23
02. Just Like I Pictured It - 3:28
03. Start-Stop - 6:38
04. Nocturne - 4:03
05. Hey-Hee-Hi-Ho - 3:15
06. Whatever Happened to Gus - 4:26
07. Latin Shuffle - 9:05
08. Everyday People - 5:27
09. Coconut Boogaloo - 3:57
10. Church of Logic - 6:39
11. No Ke Ano Ahiahi - 4:48
12. Hypnotized - 13:37
Exact Audio Copy V0.99 prebeta 5 from 4. May 2009
EAC extraction logfile from 16. October 2010, 19:07
Medeski Martin & Wood / Combustication
Used drive : HL-DT-STDVD-RAM GSA-H55N Adapter: 0 ID: 2
Read mode : Secure
Utilize accurate stream : Yes
Defeat audio cache : Yes
Make use of C2 pointers : No
Read offset correction : 102
Overread into Lead-In and Lead-Out : Yes
Fill up missing offset samples with silence : Yes
Delete leading and trailing silent blocks : No
Null samples used in CRC calculations : Yes
Used interface : Installed external ASPI interface
Gap handling : Appended to previous track
Used output format : User Defined Encoder
Selected bitrate : 128 kBit/s
Quality : High
Add ID3 tag : No
Command line compressor : G:Program FilesExact Audio CopyEncoderflac.exe
Additional command line options : -V -8 -T "Genre=%m" -T "Artist=%a" -T "Title=%t" -T "Album=%g" -T "Date=%y" -T "Tracknumber=%n" -T "Comment=EACpb5 -8" %s
TOC of the extracted CD
Track | Start | Length | Start sector | End sector
---------------------------------------------------------
1 | 0:00.00 | 3:22.40 | 0 | 15189
2 | 3:22.40 | 3:27.47 | 15190 | 30761
3 | 6:50.12 | 6:38.05 | 30762 | 60616
4 | 13:28.17 | 4:02.60 | 60617 | 78826
5 | 17:31.02 | 3:14.60 | 78827 | 93436
6 | 20:45.62 | 4:25.70 | 93437 | 113381
7 | 25:11.57 | 9:04.65 | 113382 | 154246
8 | 34:16.47 | 5:26.40 | 154247 | 178736
9 | 39:43.12 | 3:57.08 | 178737 | 196519
10 | 43:40.20 | 6:38.57 | 196520 | 226426
11 | 50:19.02 | 4:47.65 | 226427 | 248016
12 | 55:06.67 | 13:37.13 | 248017 | 309304
Track 1
Filename F:WAV1 - Sugar Craft.wav
Pre-gap length 0:00:02.00
Peak level 95.4 %
Track quality 100.0 %
Test CRC F99F8C54
Copy CRC F99F8C54
Accurately ripped (confidence 27) [D559D5F6]
Copy OK
Track 2
Filename F:WAV2 - Just Like I Pictured It.wav
Pre-gap length 0:00:03.08
Peak level 87.8 %
Track quality 100.0 %
Test CRC D518B9F2
Copy CRC D518B9F2
Accurately ripped (confidence 27) [5721F7B4]
Copy OK
Track 3
Filename F:WAV3 - Start-Stop.wav
Peak level 99.8 %
Track quality 100.0 %
Test CRC CB319BCC
Copy CRC CB319BCC
Accurately ripped (confidence 27) [A7A5C7CF]
Copy OK
Track 4
Filename F:WAV4 - Nocturne.wav
Pre-gap length 0:00:02.12
Peak level 99.9 %
Track quality 100.0 %
Test CRC 411A420C
Copy CRC 411A420C
Accurately ripped (confidence 27) [C0A659FA]
Copy OK
Track 5
Filename F:WAV5 - Hey-Hee-Hi-Ho.wav
Pre-gap length 0:00:02.45
Peak level 99.8 %
Track quality 100.0 %
Test CRC 88988677
Copy CRC 88988677
Accurately ripped (confidence 27) [CBC9EA6D]
Copy OK
Track 6
Filename F:WAV6 - Whatever Happened to Gus.wav
Pre-gap length 0:00:01.00
Peak level 99.0 %
Track quality 100.0 %
Test CRC D205FAE2
Copy CRC D205FAE2
Accurately ripped (confidence 27) [C8EE9FD3]
Copy OK
Track 7
Filename F:WAV7 - Latin Shuffle.wav
Pre-gap length 0:00:01.22
Peak level 99.8 %
Track quality 100.0 %
Test CRC E9B784FC
Copy CRC E9B784FC
Accurately ripped (confidence 27) [09F630F3]
Copy OK
Track 8
Filename F:WAV8 - Everyday People.wav
Pre-gap length 0:00:00.23
Peak level 97.0 %
Track quality 100.0 %
Test CRC 67B6BD59
Copy CRC 67B6BD59
Accurately ripped (confidence 27) [83631340]
Copy OK
Track 9
Filename F:WAV9 - Coconut Boogaloo.wav
Peak level 96.9 %
Track quality 99.9 %
Test CRC 5A0C5886
Copy CRC 5A0C5886
Accurately ripped (confidence 27) [1BCDC688]
Copy OK
Track 10
Filename F:WAV10 - Church of Logic.wav
Peak level 99.3 %
Track quality 100.0 %
Test CRC A7A53286
Copy CRC A7A53286
Accurately ripped (confidence 27) [D8C3A54C]
Copy OK
Track 11
Filename F:WAV11 - No Ke Ano Ahiahi.wav
Pre-gap length 0:00:03.00
Peak level 99.9 %
Track quality 99.9 %
Test CRC A6068490
Copy CRC A6068490
Accurately ripped (confidence 27) [BE2766A7]
Copy OK
Track 12
Filename F:WAV12 - Hypnotized.wav
Pre-gap length 0:00:01.70
Peak level 98.2 %
Track quality 99.9 %
Test CRC A2C770DA
Copy CRC A2C770DA
Accurately ripped (confidence 25) [A62627D4]
Copy OK
All tracks accurately ripped
No errors occurred
End of status report
FileSonic.com
Turbobit.net



Alternative download links

DOWNLOAD

Related MP3 FLAC to Medeski Martin Wood - Combustication (1998)
Feedback
All rights reserved.
WEBBG.com © 2000-2018