Michael Franks - Indispensable (1988) CD Rip
MP3 FLAC WMA APE HD

Michael Franks - Indispensable (1988) CD Rip

Artist: Michael Franks
Title: Indispensable
Year Of Release: 1988
Label: Warner Bros[241437-2]
Genre: Jazz, Vocal Jazz, Smoot Jazz
Quality: FLAC (tracks + .cue,log,scans)
Total Time: 69:01
Total Size: 401 MB (+3%)
WebSite:

Tracklist
01. Eggplant
02. Monkey See-Monkey Do
03. The Lady Wants to Know
04. Down in Brazil
05. Don't Be Blue
06. When the Cookie Jar Is Empty
07. A Robinsong
08. Jardin Botanico
09. When It's Over
10. Baseball
11. Jealousy
12. No Deposit Love
13. Rainy Night in Tokyo
14. Never Satisfied
15. Read My Lips
16. Face to Face
17. The Camera Never Lies
Ray Armando - Percussion
Kenny Barron - Piano
Rubens Bassini - Percussion
Crusher Bennett - Conga
Michael Brecker - Sax (Alto), Sax (Tenor)
Randy Brecker - Trumpet
Hiram Bullock - Guitar
Larry Bunker - Vibraphone
Herb Bushler - Bass
Larry Carlton - Guitar
Joe Caro - Guitar (Acoustic), Guitar (Electric)
Francisco Centeno - Bass
Vivian Cherry - Vocals (bckgr)
Kacey Cisyk - Vocals (bckgr)
Helio Delmiro - Guitar (Rhythm)
Joгo Donato - Piano
Sue Evans - Percussion
Wilton Felder - Bass
Lawrence Feldman - Sax (Alto)
Victor Feldman - Percussion
Steve Gadd - Drums
Art Garfunkel - Vocals (bckgr)
Don Grolnick - Fender Rhodes
John Guerin - Percussion, Drums
Neil Jason - Bass
Steve Khan - Guitar
Will Lee - Bass
Bob Leinbach - Organ
Yvonne Lewis - Vocals (bckgr)
David Liebman - Flute
Ted Lo - Fender Rhodes
Ralph MacDonald - Percussion
Rick Marotta - Drums
Marcus Miller - Bass
Jeff Mironov - Guitar (Acoustic), Guitar (Electric)
Rob Mounsey - Piano
Andy Newmark - Drums
Joгo Palma - Drums
Chris Parker - Cymbals, Drums
Leon Pendarvis - Piano
Petsye Powell - Vocals (bckgr)
Flora Purim - Vocals (bckgr)
Joe Sample - Piano, Keyboards
David Sanborn - Sax (Alto)
Sylvia Shemwell - Vocals (bckgr)
Lew Soloff - Trumpet
David Spinozza - Guitar
Hamish Stuart - Vocals (bckgr)
Toots Thielemans - Harmonica
John Tropea - Guitar
Ernie Watts - Sax (Tenor)
Dave Weckl - Drums
Buddy Williams - Drums
Michael Franks (born 18 September 1944 in La Jolla, California) is a smooth jazz singer and songwriter from the United States. He has recorded with a variety of well-known artists, such as Patti Austin, Brenda Russell, Art Garfunkel, and David Sanborn. His songs have been recorded by The Manhattan Transfer, Patti Labelle, Carmen McRae, Diana Krall, Shirley Bassey and The Carpenters.
EAC extraction logfile from 10. November 2008, 16:50 for CD
Michael Franks / Indispensable
Used drive : PIONEER DVD-RW DVR-116D Adapter: 0 ID: 0
Read mode : Secure with NO C2, accurate stream, disable cache
Read offset correction : 48
Overread into Lead-In and Lead-Out : No
Used output format : C:Program FilesExact Audio Copyflac.exe (User Defined Encoder)
320 kBit/s
Additional command line options : -8 -V -T "ARTIST=%a" -T "TITLE=%t" -T "ALBUM=%g" -T "DATE=%y" -T "TRACKNUMBER=%n" -T "GENRE=%m" -T "COMMENT=EAC FLAC -8" %s
Other options :
Fill up missing offset samples with silence : Yes
Delete leading and trailing silent blocks : No
Installed external ASPI interface
Track 1
Filename H:Michael Franks - Indispensable (19880 [FLAC]1 - Eggplant.wav
Pre-gap length 0:00:02.00
Peak level 81.2 %
Track quality 99.9 %
Test CRC 6B4795CC
Copy CRC 6B4795CC
Copy OK
Track 2
Filename H:Michael Franks - Indispensable (19880 [FLAC]2 - Monkey See - Monkey Do.wav
Pre-gap length 0:00:01.86
Peak level 82.5 %
Track quality 100.0 %
Test CRC 74F7F3FC
Copy CRC 74F7F3FC
Copy OK
Track 3
Filename H:Michael Franks - Indispensable (19880 [FLAC]3 - The Lady Wants To Know.wav
Pre-gap length 0:00:02.84
Peak level 83.1 %
Track quality 99.9 %
Test CRC 3D75AEED
Copy CRC 3D75AEED
Copy OK
Track 4
Filename H:Michael Franks - Indispensable (19880 [FLAC]4 - Down In Brazil.wav
Pre-gap length 0:00:00.89
Peak level 76.1 %
Track quality 99.9 %
Test CRC B187F84B
Copy CRC B187F84B
Copy OK
Track 5
Filename H:Michael Franks - Indispensable (19880 [FLAC]5 - Don't Be Blue.wav
Pre-gap length 0:00:02.00
Peak level 100.0 %
Track quality 100.0 %
Test CRC 14776F76
Copy CRC 14776F76
Copy OK
Track 6
Filename H:Michael Franks - Indispensable (19880 [FLAC]6 - When The Cookie Jar Is Empty.wav
Pre-gap length 0:00:01.40
Peak level 100.0 %
Track quality 100.0 %
Test CRC 90E87A8B
Copy CRC 90E87A8B
Copy OK
Track 7
Filename H:Michael Franks - Indispensable (19880 [FLAC]7 - A Robinsong.wav
Pre-gap length 0:00:03.73
Peak level 100.0 %
Track quality 100.0 %
Test CRC 2B029C62
Copy CRC 2B029C62
Copy OK
Track 8
Filename H:Michael Franks - Indispensable (19880 [FLAC]8 - Jardin Botanico.wav
Pre-gap length 0:00:01.69
Peak level 86.9 %
Track quality 100.0 %
Test CRC A74C5FEE
Copy CRC A74C5FEE
Copy OK
Track 9
Filename H:Michael Franks - Indispensable (19880 [FLAC]9 - When It's Over.wav
Pre-gap length 0:00:01.73
Peak level 83.4 %
Track quality 100.0 %
Test CRC AED34020
Copy CRC AED34020
Copy OK
Track 10
Filename H:Michael Franks - Indispensable (19880 [FLAC]10 - Baseball.wav
Pre-gap length 0:00:05.33
Peak level 100.0 %
Track quality 100.0 %
Test CRC 59B580E4
Copy CRC 59B580E4
Copy OK
Track 11
Filename H:Michael Franks - Indispensable (19880 [FLAC]11 - Jealousy.wav
Pre-gap length 0:00:01.50
Peak level 89.7 %
Track quality 100.0 %
Test CRC BEB925C1
Copy CRC BEB925C1
Copy OK
Track 12
Filename H:Michael Franks - Indispensable (19880 [FLAC]12 - No Deposit Love.wav
Pre-gap length 0:00:03.20
Peak level 89.2 %
Track quality 100.0 %
Test CRC 62CEFD45
Copy CRC 62CEFD45
Copy OK
Track 13
Filename H:Michael Franks - Indispensable (19880 [FLAC]13 - Rainy Night In Tokyo.wav
Pre-gap length 0:00:02.33
Peak level 77.7 %
Track quality 100.0 %
Test CRC 071825E0
Copy CRC 071825E0
Copy OK
Track 14
Filename H:Michael Franks - Indispensable (19880 [FLAC]14 - Never Satisfied.wav
Pre-gap length 0:00:02.10
Peak level 92.2 %
Track quality 100.0 %
Test CRC 13196311
Copy CRC 13196311
Copy OK
Track 15
Filename H:Michael Franks - Indispensable (19880 [FLAC]15 - Read My Lips.wav
Pre-gap length 0:00:02.30
Peak level 98.3 %
Track quality 100.0 %
Test CRC 89E8AAA3
Copy CRC 89E8AAA3
Copy OK
Track 16
Filename H:Michael Franks - Indispensable (19880 [FLAC]16 - Face To Face.wav
Pre-gap length 0:00:02.00
Peak level 100.0 %
Track quality 99.9 %
Test CRC E842B7A9
Copy CRC E842B7A9
Copy OK
Track 17
Filename H:Michael Franks - Indispensable (19880 [FLAC]17 - The Camera Never Lies.wav
Pre-gap length 0:00:00.53
Peak level 77.6 %
Track quality 100.0 %
Test CRC 38A70011
Copy CRC 38A70011
Copy OK
No errors occured
End of status report




Alternative download links

Turbobit

Related MP3 FLAC to Michael Franks - Indispensable (1988) CD Rip
Feedback
All rights reserved.
WEBBG.com © 2000-2018