Rolf Joachim Kuhn - Music For Two Brothers (1997) CD Rip
MP3 FLAC WMA APE HD

Rolf Joachim Kuhn - Music For Two Brothers (1997) CD Rip

  • Genre: Jazz, FLAC / APE, CD-Rip
  • Formats: MP3 FLAC WMA HD APE
  • Album Size: 1626 mb.
  • Archive: ZIP RAR
Artist: Rolf & Joachim Kuhn
Title Of Album: Music For Two Brothers
Year Of Release: 1997
Label(Catalog#): MPS Records[539 101-2]
Country:Germany
Genre: Jazz, Post Bop
Quality: FLAC (image + .cue,log,scans)
Bitrate:Lossless
Time: 73:39
Full Size: 506 MB(+3%)

Tracklist

01. My friend the yogi
02. Ca. 1-9-5-2
03. Made in Spain
04. Music for two brothers
05. One string more
06. Uncle Archibald
07. Hip elegy in kingsize
08. First Frisco
09. Swampfire Part 1
10. One more bass hit

personnel :

Rolf Kuhn (cl), Joachim Kuhn (p, kb), Randy Brecker (tp), Alphonse Mouzon (d), Phil Woods (as), Alber Mangelsdorff (tb), Daniel Humair (d), Nana Vasconcelos (perc), Niels-Henning Orsted Pedersen (b)

Exact Audio Copy V0.99 prebeta 5 from 4. May 2009

EAC extraction logfile from 25. February 2010, 21:18

Rolf & Joachim Kьhn / music for two brothers

Used drive : TSSTcorpDVD+-RW TS-U633A Adapter: 0 ID: 1

Read mode : Secure
Utilize accurate stream : Yes
Defeat audio cache : Yes
Make use of C2 pointers : No

Read offset correction : 6
Overread into Lead-In and Lead-Out : No
Fill up missing offset samples with silence : Yes
Delete leading and trailing silent blocks : No
Null samples used in CRC calculations : Yes
Used interface : Native Win32 interface for Win NT & 2000

Used output format : Internal WAV Routines
Sample format : 44.100 Hz; 16 Bit; Stereo


TOC of the extracted CD

Track | Start | Length | Start sector | End sector
---------------------------------------------------------
1 | 0:00.00 | 3:51.40 | 0 | 17364
2 | 3:51.40 | 7:04.70 | 17365 | 49234
3 | 10:56.35 | 7:06.22 | 49235 | 81206
4 | 18:02.57 | 8:26.40 | 81207 | 119196
5 | 26:29.22 | 8:14.05 | 119197 | 156251
6 | 34:43.27 | 6:38.43 | 156252 | 186144
7 | 41:21.70 | 8:35.20 | 186145 | 224789
8 | 49:57.15 | 7:11.60 | 224790 | 257174
9 | 57:09.00 | 9:44.30 | 257175 | 301004
10 | 66:53.30 | 6:46.27 | 301005 | 331481


Range status and errors

Selected range

Filename C:_ArcEAC_OutRolf & Joachim Kьhn - Music For Two BrothersRolf & Joachim Kьhn - Music For Two Brothers.wav

Peak level 99.8 %
Range quality 99.9 %
Copy CRC 79E5F5D1
Copy OK

No errors occurred


AccurateRip summary

Track 1 accurately ripped (confidence 1) [ACEC8EE1]
Track 2 accurately ripped (confidence 1) [30CF6A94]
Track 3 accurately ripped (confidence 1) [E67CE23B]
Track 4 accurately ripped (confidence 1) [DD8578C2]
Track 5 accurately ripped (confidence 1) [1E37F47E]
Track 6 accurately ripped (confidence 1) [6013FCB9]
Track 7 accurately ripped (confidence 1) [5079CE4E]
Track 8 accurately ripped (confidence 1) [1A368B34]
Track 9 accurately ripped (confidence 1) [DE1636F2]
Track 10 accurately ripped (confidence 1) [07F3B70A]

All tracks accurately ripped

End of status report






Alternative download links

Turbobit

Related MP3 FLAC to Rolf Joachim Kuhn - Music For Two Brothers (1997) CD Rip
Feedback
All rights reserved.
WEBBG.com © 2000-2018