Quincy Jones - Dollar$ (1971)
MP3 FLAC WMA APE HD

Quincy Jones - Dollar$ (1971)

Artist: Quincy Jones
Title: Dollar$
Year Of Release: 1971
Label: Warner[9362-47879-2]
Genre: Jazz, Soul, Soundtrack
Quality: FLAC (image + .cue,log,scans)
Total Time: 37:17
Total Size: 253 MB(+3%)
WebSite:

Tracklist
01 - Money Is
02 - Snow Creatures
03 - Ribber Ducky
04 - Redeye Runnin' Train
05 - Shady Lady
06 - Monney Runner
07 - When You're Smiling End Title
08 - Do It - To It
09 - Candy Man
10 - Passin' The Buck
11 - Kitty With The Bent Frame
12 - Brook's 50cent Tour
personnel:
Arthur Adams - Guitar
Elek Bacsik - Guitar
Paul Beaver - Keyboards
Ray Brown - Bass
Larry Bunker - Percussion
Don Elliott - Voices
Gene Estes - Percussion
Victor Feldman - Percussion
Clare Fischer - Keyboards
Elliott Fisher - Violin
Roberta Flack - Vocals, Performer
Eric Gale - Guitar
Milt Holland - Percussion
Paul Humphrey - Drums
Tommy Johnson - Tuba
Quincy Jones - Piano, Trumpet, Composer, Conductor
Artie Kane - Keyboards
Doug Kershaw - Violin, Performer
Michael Lang - Keyboards
Little Richard - Piano, Vocals, Performer
Bill Plummer - Keyboards, Sitar
Bobbye Porter - Percussion
Billy Preston - Keyboards
Chuck Rainey - Keyboards
Jerome Richardson - Woodwind
Ron Tutt - Drums
David T. Walker - Guitar
Dollar$ is the soundtrack album to the 1971 Richard Brooks movie of the same name, variously known as $, Dollars, Dollar$ or The Heist, starring Warren Beatty and Goldie Hawn.
Exact Audio Copy V0.99 prebeta 4 from 23. January 2008
EAC extraction logfile from 10. January 2009, 13:19
Quincy Jones / Music From The Motion Picture Dollar$
Used drive : HL-DT-STRW/DVD GCC-4242N Adapter: 1 ID: 0
Read mode : Secure
Utilize accurate stream : Yes
Defeat audio cache : Yes
Make use of C2 pointers : Yes
Read offset correction : 102
Overread into Lead-In and Lead-Out : No
Fill up missing offset samples with silence : Yes
Delete leading and trailing silent blocks : No
Null samples used in CRC calculations : Yes
Used interface : Native Win32 interface for Win NT & 2000
Used output format : Internal WAV Routines
Sample format : 44.100 Hz; 16 Bit; Stereo
TOC of the extracted CD
Track | Start | Length | Start sector | End sector
---------------------------------------------------------
1 | 0:00.00 | 4:28.35 | 0 | 20134
2 | 4:28.35 | 3:16.07 | 20135 | 34841
3 | 7:44.42 | 1:10.08 | 34842 | 40099
4 | 8:54.50 | 2:54.35 | 40100 | 53184
5 | 11:49.10 | 1:06.70 | 53185 | 58204
6 | 12:56.05 | 3:08.32 | 58205 | 72336
7 | 16:04.37 | 1:45.45 | 72337 | 80256
8 | 17:50.07 | 2:51.23 | 80257 | 93104
9 | 20:41.30 | 3:11.05 | 93105 | 107434
10 | 23:52.35 | 1:36.12 | 107435 | 114646
11 | 25:28.47 | 2:13.03 | 114647 | 124624
12 | 27:41.50 | 9:35.55 | 124625 | 167804
Range status and errors
Selected range
Filename C:_EAC_OutOutTodd Rundgren's Utopia - Todd Rundgren's UtopiaQuincy Jones - Dollar$.wav
Peak level 98.0 %
Range quality 100.0 %
Copy CRC 25484DDD
Copy OK
No errors occurred

AccurateRip summary

Track 1 not present in database
Track 2 not present in database
Track 3 not present in database
Track 4 not present in database
Track 5 not present in database
Track 6 not present in database
Track 7 not present in database
Track 8 not present in database
Track 9 not present in database
Track 10 not present in database
Track 11 not present in database
Track 12 not present in database

None of the tracks are present in the AccurateRip database
End of status report




Alternative download links

Turbobit

Related MP3 FLAC to Quincy Jones - Dollar$ (1971)
Feedback
All rights reserved.
WEBBG.com © 2000-2018