Cannonball Adderley - Things Are Getting Better (1958)
MP3 FLAC WMA APE HD

Cannonball Adderley - Things Are Getting Better (1958)

  • Genre: Jazz, Music, FLAC / APE
  • Formats: MP3 FLAC WMA HD APE
  • Album Size: 1343 mb.
  • Archive: ZIP RAR
Artist: Cannonball Adderley
Title: Things Are Getting Better
Year Of Release: 1958
Label: Riverside, OJC[OJCCD-033-2]
Genre: Jazz
Quality: FLAC (image + .cue,log,scans)
Total Time: 52:29
Total Size: 312 MB(+3%)
WebSite:

Tracklist

01 - Blues Oriental
02 - Things Are Getting Better
03 - Serves Me Right (Take 5)
04 - Serves Me Right (Take 4)
05 - Groovin' High
06 - The Sidewalks of New York (Take 5)
07 - The Sidewalks of New York (Take 4)
08 - Sounds for Sid
09 - Just One of Those Things

personnel:

Cannonball Adderley - alto saxophone
Milt Jackson - vibraphone
Wynton Kelly - piano
Percy Heath - acoustic bass
Art Blakey - drums

All-star session recorded in NYC in the autumn of 1958, led by Cannonball Adderley on alto sax, and Milt Jackson on vibes. The rhythm section is also no less noteworthy with Wynton Kelly on piano, Percy Heath on bass and Art Blakey on drums. This date represents an interesting and successful juxtaposition of the two sides of jazz at the time, with Adderley coming from the more improvisational and swinging side of downtown jazz and Jackson coming from the more cerebral side of jazz as 'high art'. But despite hailing from different sides of the scene, both men are considered venerable “practitioners of the blues” and this is perhaps the tie that binds these men together on this memorable date. The group plays a range of tunes including two of Adderley's own compositions: the title track “Things Are Getting Better” and “Sounds For Sid” (dedicated to a favorite disc jockey of the time). Jackson also contributes one of his own themes with the original “Blues Oriental”, which leads off the disc. They also play Dizzy's bop-era classic “Groovin' High”, while Adderley presents his own modern take on “The Sidewalks of New York”. An important meeting of top shelf jazz musicians in a critical year in jazz history

Exact Audio Copy V0.99 prebeta 5 from 4. May 2009

EAC extraction logfile from 1. November 2010, 15:29

Cannonball Adderley / Things Are Getting Better

Used drive : HL-DT-STDVDRAM GT20N Adapter: 0 ID: 0

Read mode : Secure
Utilize accurate stream : Yes
Defeat audio cache : Yes
Make use of C2 pointers : No

Read offset correction : 667
Overread into Lead-In and Lead-Out : No
Fill up missing offset samples with silence : Yes
Delete leading and trailing silent blocks : No
Null samples used in CRC calculations : Yes
Used interface : Installed external ASPI interface

Used output format : Internal WAV Routines
Sample format : 44.100 Hz; 16 Bit; Stereo


TOC of the extracted CD

Track | Start | Length | Start sector | End sector
---------------------------------------------------------
1 | 0:00.00 | 5:03.40 | 0 | 22764
2 | 5:03.40 | 7:14.22 | 22765 | 55336
3 | 12:17.62 | 4:49.05 | 55337 | 77016
4 | 17:06.67 | 4:36.58 | 77017 | 97774
5 | 21:43.50 | 5:22.10 | 97775 | 121934
6 | 27:05.60 | 6:59.72 | 121935 | 153431
7 | 34:05.57 | 5:14.60 | 153432 | 177041
8 | 39:20.42 | 6:27.45 | 177042 | 206111
9 | 45:48.12 | 6:45.30 | 206112 | 236516


Range status and errors

Selected range

Filename D:EACCannonball Adderley - Things Are Getting BetterCannonball Adderley - Things Are Getting Better.wav

Peak level 97.8 %
Range quality 100.0 %
Test CRC 44263274
Copy CRC 44263274
Copy OK

No errors occurred


AccurateRip summary

Track 1 accurately ripped (confidence 6) [8AB55B65]
Track 2 accurately ripped (confidence 6) [94D4BA64]
Track 3 accurately ripped (confidence 6) [ACAECDA8]
Track 4 accurately ripped (confidence 6) [05E98755]
Track 5 accurately ripped (confidence 6) [6C2F49DD]
Track 6 accurately ripped (confidence 6) [B3CB3AAB]
Track 7 accurately ripped (confidence 6) [533B266D]
Track 8 accurately ripped (confidence 6) [23627F5D]
Track 9 accurately ripped (confidence 4) [B3E7475A]

All tracks accurately ripped

End of status report





Alternative download links

Turbobit

Related MP3 FLAC to Cannonball Adderley - Things Are Getting Better (1958)
Feedback
All rights reserved.
WEBBG.com © 2000-2018