Earth, Wind Fire - Gratitude (1975) FLAC
MP3 FLAC WMA APE HD

Earth, Wind Fire - Gratitude (1975) FLAC

Artist: Earth, Wind & Fire
Title: Gratitude
Year Of Release: 1975
Label: Columbia[CK 65737]
Genre: Soul, Jazz Funk
Quality: FLAC (tracks + .cue,log,scans)
Total Time: 69:14
Total Size: 556 MB(+3%)
WebSite:

Tracklist
01. Introduction By Mc Perry Jones [0:00:21.67]
02. Africano/Power [0:05:56.30]
03. Yearnin' Learnin' [0:04:16.05]
04. Devotion [0:05:07.10]
05. Sun Goddess [0:07:41.38]
06. Reasons [0:08:23.10]
07. Sing a Message To You [0:01:19.12]
08. Shining Star [0:04:55.73]
09. New World Symphony [0:09:28.67]
10. Interlude #1 [0:00:15.13]
11. Sunshine [0:04:16.67]
12. Sing A Song [0:03:23.63]
13. Gratitude [0:03:27.70]
14. Celebrate [0:03:06.20]
15. Interlude #2 [0:00:27.12]
16. Can't Hide Love [0:04:10.35]
17. Live Bonus Medley [0:06:13.55]
Earth, Wind & Fire were consolidating their jazz influences into a tighter meld of funk and rock when Gratitude appeared near the end of 1975. Still, the improvisatory spirit burns hard on the three-quarters of the set taken from concert performances in the wake of That's the Way of the World's success. Highlights include hot takes on "Shining Star" and "Sun Goddess," as well as the studio cuts "Sing a Song" and "Can't Hide Love." --Rickey Wright
Exact Audio Copy V0.99 prebeta 4 from 23. January 2008
EAC extraction logfile from 3. January 2009, 22:34
Earth< Wind & Fire / Gratitude
Used drive : _NEC DVD_RW ND-4550A Adapter: 0 ID: 2
Read mode : Secure
Utilize accurate stream : Yes
Defeat audio cache : Yes
Make use of C2 pointers : No
Read offset correction : 48
Overread into Lead-In and Lead-Out : No
Fill up missing offset samples with silence : Yes
Delete leading and trailing silent blocks : No
Null samples used in CRC calculations : Yes
Used interface : Native Win32 interface for Win NT & 2000
Gap handling : Appended to previous track
Used output format : User Defined Encoder
Selected bitrate : 768 kBit/s
Quality : High
Add ID3 tag : No
Command line compressor : C:Program FilesExact Audio CopyFLACFLAC.EXE
Additional command line options : -6 -V -T "ARTIST=%a" -T "TITLE=%t" -T "ALBUM=%g" -T "DATE=%y" -T "TRACKNUMBER=%n" -T "GENRE=%m" -T "COMMENT=%e" %s -o %d
TOC of the extracted CD
Track | Start | Length | Start sector | End sector
---------------------------------------------------------
1 | 0:00.00 | 0:21.67 | 0 | 1641
2 | 0:21.67 | 5:56.30 | 1642 | 28371
3 | 6:18.22 | 4:16.05 | 28372 | 47576
4 | 10:34.27 | 5:07.10 | 47577 | 70611
5 | 15:41.37 | 7:41.38 | 70612 | 105224
6 | 23:23.00 | 8:23.10 | 105225 | 142959
7 | 31:46.10 | 1:19.12 | 142960 | 148896
8 | 33:05.22 | 4:55.73 | 148897 | 171094
9 | 38:01.20 | 9:28.67 | 171095 | 213761
10 | 47:30.12 | 0:15.13 | 213762 | 214899
11 | 47:45.25 | 4:16.67 | 214900 | 234166
12 | 52:02.17 | 3:23.63 | 234167 | 249454
13 | 55:26.05 | 3:27.70 | 249455 | 265049
14 | 58:54.00 | 3:06.20 | 265050 | 279019
15 | 62:00.20 | 0:27.12 | 279020 | 281056
16 | 62:27.32 | 4:10.35 | 281057 | 299841
17 | 66:37.67 | 6:13.55 | 299842 | 327871
Track 1
Filename D:MediaAudioTemp1 - Introduction By Mc Perry Jones.wav
Pre-gap length 0:00:02.00
Peak level 67.9 %
Track quality 99.5 %
Test CRC 0D574A16
Copy CRC 0D574A16
Copy OK
Track 2
Filename D:MediaAudioTemp2 - Africano,Power.wav
Peak level 94.4 %
Track quality 100.0 %
Test CRC 3FE07F18
Copy CRC 3FE07F18
Copy OK
Track 3
Filename D:MediaAudioTemp3 - Yearnin' Learnin'.wav
Pre-gap length 0:00:12.30
Peak level 94.2 %
Track quality 100.0 %
Test CRC F58ED65A
Copy CRC F58ED65A
Copy OK
Track 4
Filename D:MediaAudioTemp4 - Devotion.wav
Peak level 94.2 %
Track quality 100.0 %
Test CRC D5E48A95
Copy CRC D5E48A95
Copy OK
Track 5
Filename D:MediaAudioTemp5 - Sun Goddess.wav
Pre-gap length 0:00:14.07
Peak level 94.1 %
Track quality 100.0 %
Test CRC 5FD6C188
Copy CRC 5FD6C188
Copy OK
Track 6
Filename D:MediaAudioTemp6 - Reasons.wav
Pre-gap length 0:00:00.48
Peak level 94.1 %
Track quality 100.0 %
Test CRC 907B9B27
Copy CRC 907B9B27
Copy OK
Track 7
Filename D:MediaAudioTemp7 - Sing a Message To You.wav
Peak level 94.1 %
Track quality 100.0 %
Test CRC 87B223AC
Copy CRC 87B223AC
Copy OK
Track 8
Filename D:MediaAudioTemp8 - Shining Star.wav
Peak level 98.8 %
Track quality 100.0 %
Test CRC 0746EDFF
Copy CRC 0746EDFF
Copy OK
Track 9
Filename D:MediaAudioTemp9 - New World Symphony.wav
Peak level 98.8 %
Track quality 100.0 %
Test CRC 6F7A8D9A
Copy CRC 6F7A8D9A
Copy OK
Track 10
Filename D:MediaAudioTemp10 - Interlude #1.wav
Peak level 35.0 %
Track quality 100.0 %
Test CRC D0BEBAC4
Copy CRC D0BEBAC4
Copy OK
Track 11
Filename D:MediaAudioTemp11 - Sunshine.wav
Peak level 94.2 %
Track quality 100.0 %
Test CRC 3266B86E
Copy CRC 3266B86E
Copy OK
Track 12
Filename D:MediaAudioTemp12 - Sing A Song.wav
Peak level 94.2 %
Track quality 100.0 %
Test CRC 986632BB
Copy CRC 986632BB
Copy OK
Track 13
Filename D:MediaAudioTemp13 - Gratitude.wav
Peak level 94.2 %
Track quality 99.9 %
Test CRC 360436D5
Copy CRC 360436D5
Copy OK
Track 14
Filename D:MediaAudioTemp14 - Celebrate.wav
Peak level 94.2 %
Track quality 99.9 %
Test CRC 1CF3963C
Copy CRC 1CF3963C
Copy OK
Track 15
Filename D:MediaAudioTemp15 - Interlude #2.wav
Peak level 94.2 %
Track quality 100.0 %
Test CRC B86996A1
Copy CRC B86996A1
Copy OK
Track 16
Filename D:MediaAudioTemp16 - Can't Hide Love.wav
Peak level 94.2 %
Track quality 100.0 %
Test CRC 9DE03573
Copy CRC 9DE03573
Copy OK
Track 17
Filename D:MediaAudioTemp17 - Live Bonus Medley.wav
Peak level 94.1 %
Track quality 100.0 %
Test CRC AF29B06A
Copy CRC AF29B06A
Copy OK
No errors occurred
End of status report




Alternative download links

Turbobit

Related MP3 FLAC to Earth, Wind Fire - Gratitude (1975) FLAC
Feedback
All rights reserved.
WEBBG.com © 2000-2018