Bob James Kirk Whalum - Joined At The Hip (1996)
MP3 FLAC WMA APE HD

Bob James Kirk Whalum - Joined At The Hip (1996)

Artist: Bob James & Kirk Whalum
Title Of Album: Joined At The Hip
Year Of Release: 1996
Genre: Jazz / Smooth Jazz
Label: Warner Bros / Wea
Format: FLAC
Bitrate: Lossless (tracks +.cue +.log)
Tracks: 9
Total Time: 01:02:34
Total Size: 347 MB
Tracklist:
1. Soweto (10:02)
2. Kickin Back (5:58)
3. Out Of The Cold (5:16)
4. Deja Blue (8:12)
5. Midnight At The Oasis (5:44)
6. Tell Me Something Nice (7:14)
7. Tour De Fourths (6:33)
8. The Ghetto (5:15)
9. The Prayer (8:32)
Personnel:
Kirk Whalum (saxophone);
Bob James (keyboards, synthesizer);
Kevin Whalum (vocals, chant);
Hilary James (vocals);
Chris Walker (chant);
Hiram Bullock, Jeff Golub (guitar);
Billy Kilson (drums).
JOINED AT THE HIP was nominated for a 1997 Grammy Award for Best Contemporary Jazz Performance.
JOINED AT THE HIP features Bob James and saxophonist Kirk Whalum as a team. After several appearance on one another's solo efforts, James and Whalum realized that they had similar playing styles, and as James said, "were eager to explore that compatibility in a pressure-free environment, [while] keeping everything loose and fun." Given that attitude, the album manages to break away from some of the stylistic parameters typically found on contemporary jazz albums.
Whalum stretches out and lets the opening track, "Soweto," build over ten minutes. "Kickin' Back" is James' most spontaneous moment on the album, offering a laid-back and spirited jam. In addition to fine performances by James and Whalum, other fine musicians appear on the album. Guitarist Jeff Golub is particularly sharp, displaying his talents both as a rock and jazz musician on the romantic late-night tune "Tell Me Something Nice." A cover of the 1974 Maria Muldaur hit "Midnight at the Oasis" is performed by a special, but somewhat contrived, duo--James' daughter Hilary and Kirk's brother Kevin. Also covered is "The Ghetto," a 1970 tune by Donny Hathaway and Leroy Hutson.
Exact Audio Copy V0.99 prebeta 5 from 4. May 2009
EAC extraction logfile from 5. August 2011, 21:09
Bob James & Kirk Whalum / Joined At The Hip
Used drive : Optiarc DVD RW AD-5200A Adapter: 0 ID: 0
Read mode : Secure
Utilize accurate stream : Yes
Defeat audio cache : Yes
Make use of C2 pointers : No
Read offset correction : 48
Overread into Lead-In and Lead-Out : No
Fill up missing offset samples with silence : Yes
Delete leading and trailing silent blocks : No
Null samples used in CRC calculations : Yes
Used interface : Native Win32 interface for Win NT & 2000
Gap handling : Appended to previous track
Used output format : User Defined Encoder
Selected bitrate : 1024 kBit/s
Quality : High
Add ID3 tag : No
Command line compressor : C:Program FilesExact Audio CopyFLACFLAC.EXE
Additional command line options : -8 -V -T "ARTIST=%a" -T "TITLE=%t" -T "ALBUM=%g" -T "DATE=%y" -T "TRACKNUMBER=%n" -T "GENRE=%m" -T "COMMENT=EAC FLAC -8" %s
TOC of the extracted CD
Track | Start | Length | Start sector | End sector
---------------------------------------------------------
1 | 0:00.00 | 10:04.02 | 0 | 45301
2 | 10:04.02 | 5:58.24 | 45302 | 72175
3 | 16:02.26 | 5:16.12 | 72176 | 95887
4 | 21:18.38 | 8:12.10 | 95888 | 132797
5 | 29:30.48 | 5:44.26 | 132798 | 158623
6 | 35:14.74 | 7:14.55 | 158624 | 191228
7 | 42:29.54 | 6:33.48 | 191229 | 220751
8 | 49:03.27 | 5:15.27 | 220752 | 244403
9 | 54:18.54 | 8:30.71 | 244404 | 282724
Track 1
Filename E:MUSICWAV1. Soweto.wav
Pre-gap length 0:00:02.00
Peak level 88.0 %
Track quality 99.9 %
Test CRC E3BB291B
Copy CRC E3BB291B
Track not present in AccurateRip database
Copy OK
Track 2
Filename E:MUSICWAV2. Kickin' Back.wav
Pre-gap length 0:00:01.70
Peak level 88.0 %
Track quality 100.0 %
Test CRC 33D07FC9
Copy CRC 33D07FC9
Track not present in AccurateRip database
Copy OK
Track 3
Filename E:MUSICWAV3. Out Of The Cold.wav
Pre-gap length 0:00:01.67
Peak level 88.0 %
Track quality 100.0 %
Test CRC F7ABBAD9
Copy CRC F7ABBAD9
Track not present in AccurateRip database
Copy OK
Track 4
Filename E:MUSICWAV4. Deja Blue.wav
Pre-gap length 0:00:01.70
Peak level 88.0 %
Track quality 99.9 %
Test CRC 68B58B73
Copy CRC 68B58B73
Track not present in AccurateRip database
Copy OK
Track 5
Filename E:MUSICWAV5. Midnight At The Oasis.wav
Pre-gap length 0:00:01.66
Peak level 88.0 %
Track quality 99.9 %
Test CRC CA34946D
Copy CRC CA34946D
Track not present in AccurateRip database
Copy OK
Track 6
Filename E:MUSICWAV6. Tell Me Something Nice.wav
Pre-gap length 0:00:01.74
Peak level 88.0 %
Track quality 100.0 %
Test CRC 1E5B8CBB
Copy CRC 1E5B8CBB
Track not present in AccurateRip database
Copy OK
Track 7
Filename E:MUSICWAV7. Tour De Fourths.wav
Pre-gap length 0:00:01.70
Peak level 88.0 %
Track quality 100.0 %
Test CRC B8EE5E75
Copy CRC B8EE5E75
Track not present in AccurateRip database
Copy OK
Track 8
Filename E:MUSICWAV8. The Ghetto.wav
Pre-gap length 0:00:01.69
Peak level 88.0 %
Track quality 100.0 %
Test CRC DE6003C7
Copy CRC DE6003C7
Track not present in AccurateRip database
Copy OK
Track 9
Filename E:MUSICWAV9. The Prayer.wav
Pre-gap length 0:00:01.70
Peak level 88.0 %
Track quality 100.0 %
Test CRC EBED9E62
Copy CRC EBED9E62
Track not present in AccurateRip database
Copy OK
None of the tracks are present in the AccurateRip database
No errors occurred
End of status report
FileSonic.com
Wupload.com



Alternative download links

DOWNLOAD

Related MP3 FLAC to Bob James Kirk Whalum - Joined At The Hip (1996)
Feedback
All rights reserved.
WEBBG.com © 2000-2018