Cedar Walton - Latin Tinge (2002)
MP3 FLAC WMA APE HD

Cedar Walton - Latin Tinge (2002)

  • Genre: Jazz, Music, FLAC / APE
  • Formats: MP3 FLAC WMA HD APE
  • Album Size: 1475 mb.
  • Archive: ZIP RAR
Artist: Cedar Walton
Title: Latin Tinge
Year Of Release: 2002
Label: HighNote[HCD 7099]
Genre: Jazz, Hard Bop
Quality: FLAC (image + .cue,log)
Total Time: 53:40
Total Size: 255 MB(+3%)
WebSite:

Tracklist
01. Brazil (7:05)
02. Latin America (6:15)
03. Triste (4:54)
04. Tres Palabras (5:56)
05. Perfidia (5:39)
06. The Vision (6:31)
07. Besame Mucho (7:56)
08. Serenata (5:31)
09. Latino Blue (3:53)
personnel:
Cedar Walton - piano
Cucho Martinez - bass
Ray Mantilla - percussion
Exact Audio Copy V0.99 prebeta 5 from 4. May 2009
EAC extraction logfile from 14. March 2010, 15:31
Cedar Walton / Latin Tinge
Used drive : MATSHITADVD-ROM SR-8588 Adapter: 1 ID: 1
Read mode : Secure
Utilize accurate stream : Yes
Defeat audio cache : Yes
Make use of C2 pointers : No
Read offset correction : 103
Overread into Lead-In and Lead-Out : No
Fill up missing offset samples with silence : Yes
Delete leading and trailing silent blocks : No
Null samples used in CRC calculations : Yes
Used interface : Installed external ASPI interface
Used output format : Internal WAV Routines
Sample format : 44.100 Hz; 16 Bit; Stereo
TOC of the extracted CD
Track | Start | Length | Start sector | End sector
---------------------------------------------------------
1 | 0:00.00 | 7:04.50 | 0 | 31849
2 | 7:04.50 | 6:14.69 | 31850 | 59968
3 | 13:19.44 | 4:53.62 | 59969 | 82005
4 | 18:13.31 | 5:55.50 | 82006 | 108680
5 | 24:09.06 | 5:39.05 | 108681 | 134110
6 | 29:48.11 | 6:31.29 | 134111 | 163464
7 | 36:19.40 | 7:56.29 | 163465 | 199193
8 | 44:15.69 | 5:30.73 | 199194 | 224016
9 | 49:46.67 | 3:53.12 | 224017 | 241503
Range status and errors
Selected range
Filename C:EACCedar Walton - Latin Tinge.wav
Peak level 97.9 %
Range quality 99.9 %
Test CRC 8075CFFC
Copy CRC 8075CFFC
Copy OK
No errors occurred

AccurateRip summary

Track 1 not present in database
Track 2 not present in database
Track 3 not present in database
Track 4 not present in database
Track 5 not present in database
Track 6 not present in database
Track 7 not present in database
Track 8 not present in database
Track 9 not present in database

None of the tracks are present in the AccurateRip database
End of status report




Alternative download links

Turbobit

Related MP3 FLAC to Cedar Walton - Latin Tinge (2002)
Feedback
All rights reserved.
WEBBG.com © 2000-2018