Eddy Louiss - WeBe (1992) CD Rip
MP3 FLAC WMA APE HD

Eddy Louiss - WeBe (1992) CD Rip

  • Genre: Jazz, FLAC / APE
  • Formats: MP3 FLAC WMA HD APE
  • Album Size: 1671 mb.
  • Archive: ZIP RAR
Artist: Eddy Louiss
Title: WeBe
Year Of Release: 1992
Label: Nocturne [NTCD 109]
Genre: Jazz, Post Bop
Quality: FLAC (image + .cue,log,scans)
Total Time: 50:42
Total Size: 290 MB(+3%)
WebSite:

Tracklist

01. WéBé (4:39)
02. Sax Fun (1:28)
03. Funk Set (4:07)
04. P'tit Bill au pays de Lauzanette (4:27)
05. Miséréré (7:10)
06. Hamac Blues (4:08)
07. Le petit cheval de Belfast (5:30)
08. Les éléphants (5:22)
09. Souvenirs d'une autre vie (8:16)
10. Djawa Dénam (5:35)

personnel :

Eddy Louiss - Keyboards, Organ [Hammond B3], Vocals, Drum Programming
Sylvio Marie - Bass
Paco Sery - Drums

Exact Audio Copy V0.99 prebeta 5 from 4. May 2009

EAC extraction logfile from 27. February 2010, 21:24

Eddy Louiss / WйBй

Used drive : MATSHITADVD-ROM SR-8588 Adapter: 1 ID: 1

Read mode : Secure
Utilize accurate stream : Yes
Defeat audio cache : Yes
Make use of C2 pointers : No

Read offset correction : 103
Overread into Lead-In and Lead-Out : No
Fill up missing offset samples with silence : Yes
Delete leading and trailing silent blocks : No
Null samples used in CRC calculations : Yes
Used interface : Installed external ASPI interface

Used output format : Internal WAV Routines
Sample format : 44.100 Hz; 16 Bit; Stereo


TOC of the extracted CD

Track | Start | Length | Start sector | End sector
---------------------------------------------------------
1 | 0:00.32 | 4:39.28 | 32 | 20984
2 | 4:39.60 | 1:27.55 | 20985 | 27564
3 | 6:07.40 | 4:07.20 | 27565 | 46109
4 | 10:14.60 | 4:27.15 | 46110 | 66149
5 | 14:42.00 | 7:10.12 | 66150 | 98411
6 | 21:52.12 | 4:07.38 | 98412 | 116974
7 | 25:59.50 | 5:30.35 | 116975 | 141759
8 | 31:30.10 | 5:22.02 | 141760 | 165911
9 | 36:52.12 | 8:15.43 | 165912 | 203079
10 | 45:07.55 | 5:35.00 | 203080 | 228204


Range status and errors

Selected range

Filename C:EACEddy Louiss - WйBй.wav

Peak level 100.0 %
Range quality 100.0 %
Test CRC E7626C4D
Copy CRC E7626C4D
Copy OK

No errors occurred


AccurateRip summary

Track 1 not present in database
Track 2 not present in database
Track 3 not present in database
Track 4 not present in database
Track 5 not present in database
Track 6 not present in database
Track 7 not present in database
Track 8 not present in database
Track 9 not present in database
Track 10 not present in database

None of the tracks are present in the AccurateRip database

End of status report






Alternative download links

Turbobit

Related MP3 FLAC to Eddy Louiss - WeBe (1992) CD Rip
Feedback
All rights reserved.
WEBBG.com © 2000-2018