Stacey Kent - Breakfast On The Morning Tram (2007)
MP3 FLAC WMA APE HD

Stacey Kent - Breakfast On The Morning Tram (2007)

  • Genre: Jazz
  • Formats: MP3 FLAC WMA HD APE
  • Album Size: 1531 mb.
  • Archive: ZIP RAR
Artist: Stacey Kent
Title Of Album: Breakfast On The Morning Tram
Year Of Release: 2007
Label: Blue Note Records
Genre: Jazz, Vocal Jazz
Quality: FLAC (Img,cue,log,scans)|MP3
Bitrate: lossless | 320kbps
Total Time: 52:15 min
Total Size: 319 mb/123 mb
WebSite:
Tracklisting
-------
01. The Ice Hotel (Jim Tomlinson/Kazuo Ishiguro) (4:46)
02. Landslide (Stevie Nicks) (3:48)
03. Ces Petits Riens (Serge Gainsbourg) (3:21)
04. I Wish I Could Go Travelling Again (Jim Tomlinson/Kazuo Ishiguro) (4:07)
05. So Many Stars (Sergio Mendes/M & A Bergman) (4:00)
06. Samba Saravah (B Powell/P Barouh / V deMoraes) (3:42)
07. Breakfast On The Morning Tram (Jim Tomlinson/Kazuo Ishiguro) (5:54)
08. Never Let Me Go (Jay Livingston/Ray Evans) (4:39)
09. So Romantic (Jim Tomlinson/Kazuo Ishiguro) (5:00)
10. Hard Hearted Hannah (Bob Bigelow/Charles Bates/Jack Yellen/Milton Ager) (4:49)
11. La Saison Des Pluies (Elek Bacsik/Serge Gainsbourg) (2:48)
12. What A Wonderful World (G Douglas/G D Weiss/B Thiele) (4:28)
Personnel:
-------
Stacey Kent (vocals); John Parricelli (guitars); Jim Tomlinson (alto saxophone); Graham Harvey (Fender Rhodes piano); Dave Chamberlain (double bass); Matt Skelton (drums).
Product Description
-------
After 10 years and 6 albums on the indie label, Candid, Stacey Kent finally releases her major label debut on Blue Note Records. A multi-award winner (2001 British Jazz Award, 2002 BBC Jazz Award Best Vocalist, etc) Stacey has built a huge fanbase for her cool, classy interpretations of the Great American Songbook, all recorded with husband, arranger, producer and now songwriter Jim Tomlinson (himself a winner of the 2006 Album of the Year British Jazz Award). On "Breakfast..." Jim contributes 4 new songs written with the writer Kazuo Ishiguro - one of a legion of fans that Stacey has attracted over the years (they met after he played one of her songs on Desert Island Discs!!) and this is the first time that they have featured their own songs on an album.
Stacey tours constantly - she even turned down an appearance on Parkinson because she was playing a gig (admittedly this would have been her second performance on Parkinson, which in itself is quite unique) - and has built up a very sizeable fanbase which will be determined to get the album as soon as possible. However, since Stacey is out of the UK through September we will be focusing our promotion and marketing push at the start of October as a preview to the forthcoming residency at Ronnie Scotts in November 1st - 3rd. Stacey will be available for press and promotion in late September/early October and we fully expect to find her on some major shows. In the past, her appearances on shows such as Parkinson, CBS Sunday Morning in the USA and even Swedish tv have driven an immediate and impressive sales response pushing her to number 1 and 2 in the Amazon.com charts as an example. As well as the Ronnie Scott dates in November Stacey will play a significant number of dates in the UK both this year. See below for information.
Exact Audio Copy V0.99 prebeta 5 from 4. May 2009
EAC extraction logfile from 26. June 2009, 15:47
Stacey Kent / Breakfast on the morning tram
Used drive : ASUS DRW-2014L1T Adapter: 3 ID: 0
Read mode : Secure
Utilize accurate stream : Yes
Defeat audio cache : No
Make use of C2 pointers : No
Read offset correction : 6
Overread into Lead-In and Lead-Out : No
Fill up missing offset samples with silence : Yes
Delete leading and trailing silent blocks : No
Null samples used in CRC calculations : Yes
Used interface : Installed external ASPI interface
Used output format : User Defined Encoder
Selected bitrate : 1024 kBit/s
Quality : High
Add ID3 tag : No
Command line compressor : C:Program FilesFLACflac.exe
Additional command line options : -8 -V -T "ARTIST=%a" -T "TITLE=%t" -T "ALBUM=%g" -T "DATE=%y" -T "TRACKNUMBER=%n" -T "GENRE=%m" -T "COMMENT=%e" %s -o %d
TOC of the extracted CD
Track | Start | Length | Start sector | End sector
---------------------------------------------------------
1 | 0:00.00 | 5:28.50 | 0 | 24649
2 | 5:28.50 | 3:48.18 | 24650 | 41767
3 | 9:16.68 | 3:21.08 | 41768 | 56850
4 | 12:38.01 | 4:06.71 | 56851 | 75371
5 | 16:44.72 | 4:00.59 | 75372 | 93430
6 | 20:45.56 | 3:50.33 | 93431 | 110713
7 | 24:36.14 | 5:54.30 | 110714 | 137293
8 | 30:30.44 | 4:39.32 | 137294 | 158250
9 | 35:10.01 | 5:00.44 | 158251 | 180794
10 | 40:10.45 | 4:49.39 | 180795 | 202508
11 | 45:00.09 | 2:48.17 | 202509 | 215125
12 | 47:48.26 | 4:26.61 | 215126 | 235136
Range status and errors
Selected range
Filename J:relle UFStacey Kent - Breakfast on the morning tramStacey Kent - Breakfast on the morning tramStacey Kent - Breakfast on the morning tram.wav
Peak level 99.9 %
Range quality 100.0 %
Test CRC 2983616D
Copy CRC 2983616D
Copy OK
No errors occurred

AccurateRip summary

Track 1 accurately ripped (confidence 72) [A215850A]
Track 2 accurately ripped (confidence 74) [0638F6CA]
Track 3 accurately ripped (confidence 74) [1E63E3E4]
Track 4 accurately ripped (confidence 73) [9D67DEBD]
Track 5 accurately ripped (confidence 73) [91EEBA5D]
Track 6 accurately ripped (confidence 74) [9CBAC6F5]
Track 7 accurately ripped (confidence 73) [681A3361]
Track 8 accurately ripped (confidence 73) [8CE0C348]
Track 9 accurately ripped (confidence 73) [E2435D52]
Track 10 accurately ripped (confidence 74) [806EB79B]
Track 11 accurately ripped (confidence 73) [73ADD19D]
Track 12 accurately ripped (confidence 68) [E66E4AF6]

All tracks accurately ripped
End of status report
AUDIOCHECKER v2.0 beta (build 457) - by Dester - [email protected]
~~~~~~~~~~~~~~~~~~~~~~~~~~~~~~~~~~
-=== DO NOT EDIT THIS FILE! ===-
Path: ...(Eac-Cue-Flac) Stacey Kent - Breakfast on the morning tram (JazzPlanet) UF SPG
1 -=- Stacey Kent - Breakfast on the morning tram.flac -=- CDDA (100%)
23912484
Download




Alternative download links

Bitshare

Related MP3 FLAC to Stacey Kent - Breakfast On The Morning Tram (2007)
Feedback
All rights reserved.
WEBBG.com © 2000-2018