Thelonious Monk - Misterioso (Recorded On Tour) (19652017) HDtracks
MP3 FLAC WMA APE HD

Thelonious Monk - Misterioso (Recorded On Tour) (19652017) HDtracks

Artist: Thelonious Monk
Title: Misterioso (Recorded On Tour)
Year Of Release: 2017-02-03
Label: Columbia/Legacy
Genre: Jazz, Piano Jazz, Jazz Instrument, Post-Bop
Quality: FLAC (tracks) [24Bit/192kHz]
Total Time: 52:37
Total Size: 1,97 Gb (Front Cover)
WebSite:

Misterioso (Recorded on Tour) is a live album by Thelonious Monk, released for Columbia Records. It was recorded at various locations on tour. ~Wikipedia~
Release of this album: 1965 [LP Columbia, Cat.# CS 9216, USA]
Release of this HDtracks edition: 2017, February, 3 [Label: Columbia/Legacy]
(p) Originally released 1965. All rights reserved by Columbia Records, a division of Sony Music Entertainment.
Credits:
Bass – Butch Warren (tracks: 2, 3, 8), Larry Gales (tracks: 1, 4, 5 to 7)
Drums – Ben Riley (tracks: 1, 4, 5 to 7), Frank Dunlop (tracks: A2, A3, B4)
Photography By [Cover] – Don Hunstein
Piano – Thelonious Monk
Producer – Teo Macero
Sleeve Notes – Harry Colomby
Tenor Saxophone – Charlie Rouse

Tracklist:
01. Well, You Needn't (Live at Brandeis University) (07:49)
(T. Monk)
02. Misterioso (Live at Lincoln Center) (09:44)
(T. Monk)
03. Light Blue (Live at Newport Jazz Festival) (05:40)
(T. Monk)
04. I'm Gettin' Sentimental Over You (Live at Jazz Workshop) (05:48)
(G. Bassman, N. Washington)
05. All The Things You Are (Live at Jazz Workshop) (06:48)
(O Hammerstein II - J. Kern)
06. Honeysuckle Rose (Live at The Village Gate) (04:42)
(A. Razaf, T. Waller)
07. Bemsha Swing (Live at The Village Gate) (04:11)
(D. Best, T. Monk)
08. Evidence (Live in Tokyo) (07:54)
(T. Monk)
--------------------------------------------------------------------------------
Analyzed: Thelonious Monk / Misterioso (Live)
--------------------------------------------------------------------------------
DR Peak RMS Duration Track
--------------------------------------------------------------------------------
DR13 -0.82 dB -16.74 dB 7:49 01-Well, You Needn't (Live at Brandeis University)
DR15 -1.55 dB -19.90 dB 9:44 02-Misterioso (Live at Lincoln Center)
DR15 -0.96 dB -18.16 dB 5:40 03-Light Blue (Live at Newport Jazz Festival)
DR14 -0.91 dB -18.18 dB 5:48 04-I'm Gettin' Sentimental Over You (Live at Jazz Workshop)
DR13 -2.07 dB -17.78 dB 6:48 05-All the Things You Are (Live at Jazz Worshop)
DR13 -4.09 dB -19.61 dB 4:42 06-Honeysuckle Rose (Live at Village Gate)
DR12 -2.79 dB -17.00 dB 4:11 07-Bemsha Swing (Live at Village Gate)
DR13 -3.52 dB -18.36 dB 7:54 08-Evidence (Live in Tokyo)
--------------------------------------------------------------------------------
Number of tracks: 8
Official DR value: DR13
Samplerate: 192000 Hz
Channels: 2
Bits per sample: 24
Bitrate: 4974 kbps
Codec: FLAC
================================================================================
FLAC 24/192 DOWNLOAD ~ Download 24/192 FLAC
Turbobit
|
password: BlondStyle



Alternative download links

Part 1 Part 2

Related MP3 FLAC to Thelonious Monk - Misterioso (Recorded On Tour) (19652017) HDtracks
Feedback
All rights reserved.
WEBBG.com © 2000-2018