Bill Perkins Quartet (feat.Victor Feldman) - Quietly There (1966)
MP3 FLAC WMA APE HD

Bill Perkins Quartet (feat.Victor Feldman) - Quietly There (1966)

  • Genre: Jazz, Music, FLAC / APE
  • Formats: MP3 FLAC WMA HD APE
  • Album Size: 1872 mb.
  • Archive: ZIP RAR
Artist: Bill Perkins Quintet (feat.Victor Feldman)
Title: Quietly There
Year Of Release: 1966
Label: OJC[OJCCD-1776-2]
Genre: Jazz, Cool Jazz
Quality: FLAC (image + .cue,log,scans)
Total Time: 48:04
Total Size: 294 MB(+3%)
WebSite:

Tracklist

01. Quietly There
02. Emily
03. Groover Wailin'
04. A Time For Love
05. Sure As You're Born
06. Just A Child
07. Keester Parade
08. The Shining Sea
09. Something Different
10. The Shadow of Your Smile

personnel :

Bill Perkins - tenor and bariton saxophone, bass clarinet, flute
Victor Feldman - piano, organ, vibes
John Pisano - guitars
Red Mitchell - bass
Larry Bunker - drums
Exact Audio Copy V0.99 prebeta 3 from 28. July 2007

Отчёт EAC об извлечении, выполненном 7. января 2011, 23:11

Bill Perkins / Bill Perkins Quartet featuring Victor Feldman- Quietly There

Дисковод: _NEC DVD_RW ND-3540A Adapter: 2 ID: 0

Режим чтения : Достоверность
Использование точного потока : Да
Отключение кэша аудио : Да
Использование указателей C2 : Нет

Коррекция смещения при чтении : 48
Способность читать области Lead-in и Lead-out : Нет
Заполнение пропущенных сэмплов тишиной : Да
Удаление блоков с тишиной в начале и конце : Нет
При вычислениях CRC использовались нулевые сэмплы : Да
Интерфейс : Установленный внешний ASPI-интерфейс

Выходной формат : Пользовательский кодировщик
Выбранный битрейт : 768 kBit/s
Качество : Высокий
Добавление ID3-тэга : Да
Утилита сжатия : C:Program FilesExact Audio CopyFLACFLAC.EXE
Дополнительные параметры : -6 -V -T "ARTIST=%a" -T "TITLE=%t" -T "ALBUM=%g" -T "DATE=%y" -T "TRACKNUMBER=%n" -T "GENRE=%m" -T "COMMENT=%e" %s -o %d


TOC извлечённого CD

Трек | Старт | Длительность | Начальный сектор | Конечный сектор
---------------------------------------------------------------------
1 | 0:00.00 | 4:26.37 | 0 | 19986
2 | 4:26.37 | 5:27.15 | 19987 | 44526
3 | 9:53.52 | 5:32.20 | 44527 | 69446
4 | 15:25.72 | 5:24.05 | 69447 | 93751
5 | 20:50.02 | 3:50.25 | 93752 | 111026
6 | 24:40.27 | 5:37.15 | 111027 | 136316
7 | 30:17.42 | 3:55.03 | 136317 | 153944
8 | 34:12.45 | 2:28.20 | 153945 | 165064
9 | 36:40.65 | 6:30.22 | 165065 | 194336
10 | 43:11.12 | 4:52.73 | 194337 | 216309


Характеристики диапазона извлечения и сообщения об ошибках

Выбранный диапазон

Имя файла C:Documents and SettingsМишаМои документыBill PerkinsBill Perkins - Bill Perkins Quartet featuring Victor Feldman- Quietly There.wav

Подозрительная позиция 0:25:30
Подозрительная позиция 0:27:28
Подозрительная позиция 0:28:34
Подозрительная позиция 0:28:41
Подозрительная позиция 0:28:45
Подозрительная позиция 0:29:47

Пиковый уровень 99.7 %
Качество диапазона 99.6 %
CRC копии 7F4C1516
Копирование завершено

Были ошибки


AccurateRip: сводка

Трек 1 точность не определена (достоверность 2) [3CF7733B], AccurateRip вернул [22320AB6]
Трек 2 точность не определена (достоверность 2) [872F8A6E], AccurateRip вернул [EED5D630]
Трек 3 точность не определена (достоверность 2) [858A4F7B], AccurateRip вернул [146E93FA]
Трек 4 точность не определена (достоверность 2) [9D27AF27], AccurateRip вернул [FBC1983F]
Трек 5 точность не определена (достоверность 2) [7F3CE52B], AccurateRip вернул [29664C1B]
Трек 6 точность не определена (достоверность 2) [535868D9], AccurateRip вернул [55E4AE4A]
Трек 7 точность не определена (достоверность 2) [6D7DA96D], AccurateRip вернул [57ED8540]
Трек 8 точность не определена (достоверность 2) [503796F3], AccurateRip вернул [68CA33E9]
Трек 9 точность не определена (достоверность 2) [777E8BA3], AccurateRip вернул [9794C765]
Трек 10 точность не определена (достоверность 2) [7FF3C74A], AccurateRip вернул [6A16E3E4]

Ни один трек не прошёл проверки на точность

Конец отчёта









Alternative download links

Turbobit

Related MP3 FLAC to Bill Perkins Quartet (feat.Victor Feldman) - Quietly There (1966)
Feedback
All rights reserved.
WEBBG.com © 2000-2018