Paul Rutherford - Oh World (1989) 2011, 2CD Deluxe Edition
MP3 FLAC WMA APE HD

Paul Rutherford - Oh World (1989) 2011, 2CD Deluxe Edition

Artist: Paul Rutherford
Title: Oh World (2CD Deluxe Edition)
Year Of Release: 2011-07-25
Label: Cherry Pop Records (UK)
Genre: Pop, Electronic, Synth-Pop, Soul/Funk, House
Quality: FLAC (tracks+.cue+.log) | MP3 320kbps
Total Time: 02:31:19
Total Size: 1,11 Gb | 349,99 Mb (Full Scans~3,18 Mb)
WebSite:

"Oh World" is the 1989 debut album by British singer Paul Rutherford, who provided the second voice and the power of dance with the group Frankie Goes To Hollywood. This is a deluxe edition released in 2011 by Cherry Pop featuring the original album in its entirety plus remixes, including mixes that were vinyl-only and are sourced from vinyl pressings for a few of the songs on disc 2.
Release of this album: 1989 [LP Island Records, 4th & Broadway, Cat.# 210 350, Europe]
Release of this CD: 2011, July, 25 [CD Cherry Pop Records (UK), Cat.# CRPOPD 56 / UPC: 5013929425620]
Notes: Reissue of the 1989 album, with bonus tracks.
The full album and the majority of the bonus tracks have been taken from digital sources but, as all the master tapes appear to have been lost in the mists of time, a handful of the bonus tracks where noted have been carefully restored from multiple vinyl copies.
All tracks (p) 1989, licensed from Universal Music Operations Ltd.
This compilation (p)(c) 2011 Cherry Red Records Ltd.
Distributed by PHD.
Made in EU/MCPS


Credits:

Compiled By [2011 Edition - Compiled And Curated By (give Me Back My Purity)], Liner Notes – Ian Peel
Design – Island Art
Design [2011 Edition - (what We Need Is Unity)] – Philip Marshall
Mastered By [2011 Edition - Mastering And Restoration] – Sophie Marchant
Photography By – Brad Branson
Photography By [Additional Photography] – Juergen Teller, Martin Brading
Vocals – Paul Rutherford


Tracklist:

Disc 1

The Album:
01. Oh World (06:54)
02. Deep At The Centre (05:00)
03. Who Said It Was Easy (05:11)
04. The Gospel Truth (05:55)
05. Light (01:14)
06. Get Real (03:36)
07. Cracked Wide Open (06:32)
08. I Want Your Love (04:19)
09. Catch A Falling Star (06:29)
10. Half The Picture (04:55)
The A-Sides:
11. I Want Your Love (03:49)
12. Oh World (Original 7" Mix) (03:54)
The B-Sides:
13. Happy Face (Full Length) (06:50)
14. Pushed Away (05:17)
15. Seduction (Edit) (04:22)

--------------------------------------------------------------------------------
Analyzed: Paul Rutherford / Oh World (2CD Deluxe Edition)
--------------------------------------------------------------------------------

DR Peak RMS Duration Track
--------------------------------------------------------------------------------
DR8 -0.05 dB -8.87 dB 6:54 01-01 - Oh World
DR9 -0.05 dB -10.23 dB 5:00 02-02 - Deep At The Centre
DR7 -0.05 dB -8.30 dB 5:11 03-03 - Who Said It Was Easy
DR8 -0.05 dB -10.52 dB 5:55 04-04 - The Gospel Truth
DR9 -0.05 dB -11.62 dB 1:14 05-05 - Light
DR7 -0.05 dB -8.55 dB 3:36 06-06 - Get Real
DR8 -0.05 dB -8.57 dB 6:32 07-07 - Cracked Wide Open
DR9 -0.05 dB -11.16 dB 4:19 08-08 - I Want Your Love
DR8 -0.05 dB -9.94 dB 6:29 09-09 - Catch A Falling Star
DR7 -0.05 dB -7.92 dB 4:55 10-10 - Half The Picture
DR7 -0.05 dB -9.18 dB 3:49 11-11 - I Want Your Love (Radio Mix)
DR9 -0.05 dB -10.56 dB 3:54 12-12 - Oh World (Original 7'' Mix)
DR9 -0.05 dB -10.33 dB 6:50 13-13 - Happy Face
DR7 -0.05 dB -8.90 dB 5:17 14-14 - Pushed Away
DR8 -0.05 dB -9.44 dB 4:22 15-15 - Seduction (Edit)
--------------------------------------------------------------------------------

Number of tracks: 15
Official DR value: DR8

Samplerate: 44100 Hz
Channels: 2
Bits per sample: 16
Bitrate: 993 kbps
Codec: FLAC
================================================================================

Disc 2

The Remixes:
01. Get Real (Happy House Mix) (07:27)
02. I Want Your Love (Extended Mix) (06:52)
03. I Want Your L.U.R.V.E. (04:08)
04. Oh World (Extended Mix) (06:57)
05. Oh World (Instrumental) (06:46)
The Vinyl:
06. Get Real (Hardcore) (09:33)
07. Get Real (Sinister) (06:34)
08. Get Real (Don't Let 'Em Dub You Down) (06:23)
09. I Want Your Love (Arthur Baker Remix) (06:51)
10. Oh World (Universal Mix) (10:06)
11. Oh World (Delirium Dub) (05:24)

--------------------------------------------------------------------------------
Analyzed: Paul Rutherford / Oh World (2CD Deluxe Edition)
--------------------------------------------------------------------------------

DR Peak RMS Duration Track
--------------------------------------------------------------------------------
DR11 -0.05 dB -12.06 dB 7:27 01-01 - Get Real (Happy House Mix)
DR8 -0.05 dB -9.52 dB 6:52 02-02 - I Want Your Love (Extended Mix)
DR9 -0.05 dB -10.81 dB 4:08 03-03 - I Want Your L.U.R.V.E.
DR10 -0.05 dB -11.33 dB 6:57 04-04 - Oh World (Extended Mix)
DR12 -0.05 dB -13.04 dB 6:46 05-05 - Oh World (Instrumental)
DR9 -0.05 dB -10.82 dB 9:33 06-06 - Get Real (Hardcore)
DR11 -0.05 dB -11.86 dB 6:34 07-07 - Get Real (Sinister)
DR10 -0.05 dB -10.82 dB 6:23 08-08 - Get Real (Don't Let 'Em Dub You Down - Early Fade)
DR11 -0.05 dB -11.87 dB 6:51 09-09 - I Want Your Love (Arthur Baker Remix)
DR10 -0.05 dB -11.52 dB 10:06 10-10 - Oh World (Universal Mix)
DR9 -0.05 dB -10.47 dB 5:24 11-11 - Oh World (Derlirium Dub - Early Fade)
--------------------------------------------------------------------------------

Number of tracks: 11
Official DR value: DR10

Samplerate: 44100 Hz
Channels: 2
Bits per sample: 16
Bitrate: 979 kbps
Codec: FLAC
================================================================================
Recorded at PRT Studios, Marcus Studios, Olympic Studios and Audio 1


FLAC DOWNLOAD ~ Download FLAC
|

SCANS DOWNLOAD ~ Download SCANS


MP3 DOWNLOAD ~ Download MP3
|

password: BlondStyle



Alternative download links

Disc 1 Disc 2 Turbobit Disc 1 Disc 2

Related MP3 FLAC to Paul Rutherford - Oh World (1989) 2011, 2CD Deluxe Edition
Feedback
All rights reserved.
WEBBG.com © 2000-2018