La Mverte - The Inner Out (2017) Hi-Res
MP3 FLAC WMA APE HD

La Mverte - The Inner Out (2017) Hi-Res

Artist: La Mverte
Title: The Inner Out
Year Of Release: 2017-10-13
Label: Her Majesty's Ship
Genre: Electronic
Quality: FLAC (tracks) [24bit/44.1kHz]
Total Time: 45:48
Total Size: 520,81 Mb (Front Cover)
WebSite:

We were expecting it, this first album. His backbone: a bass, synthesizers. The bass line often precedes, when they are not rhythmic patterns, with a Spartan desire to create under constraint. A disco-kraut gangue motor that La Mverte initiated on his return from a Mexican tour with HMS in March 2016, pursued in dotted line at the expense of the tours. At the end of the summer, he confined himself in the studio and gave birth to a compact album, inviting only two guests: Sarah Rebecca ("Silk") and Yan Wagner ("Crash Course"). This first effort exudes a permanent quest for self, its limits, attempts to circumvent them, more or less effective. La Mverte readily quotes the American alternative literature closest to the bitumen, Hubert Selby Jr. The stories that end bad seem to him more realistic. This patented perfectionist loves to learn from his mistakes. Success is in the eyes of others he wants to read, hoping to deliver his music to a multiplicity of readings, as mirror, necessarily chipped. "The Devil in the Details" to "The Inner Out" (reference to Dr. Jekyll and Mr. Hyde of Stevenson, "Past the Circles"), of the original sin of the Pandora's box "The box") to the myth of Medusa and its feminine power ("No Gazing" - also reference to the Chicago Medusa Club and its original house), or places of perdition such as the Triangle of Bermuda ("Square Triangle"), La Mverte quadrilles an identity card and passionate disoriented, to pace ball at the head, such an inexpugnable forward flight ("Going Astray"). But one should not be mistaken, it is not a pessimistic picture that he delivers there, rather the pragmatic vision of a young man who prefers to look at reality without false pretenses, even if to return several times. As with his tracks, as with his album, which gains with each new listening, which does not offer the first blow. Like him. ~Her Majesty's Ship~
Release of this album/Qobuz edition: 2017, October, 13 [Label: Aware/Columbia]
(c) 2017 Tech Noir under exclusive licence to Her Majesty's Ship
2017 Tech Noir under exclusive licence to Her Majesty's Ship.

Credits:

Main artist La Mverte
Composer Alexandre Berly


Tracklist:

01. Past The Circles (05:14)
02. Square Triangle (03:47)
03. The Inner Out (04:45)
04. Going Astray (05:37)
05. Crash Course (feat. Yan Wagner) (04:34)
06. The Devil In The Details (04:19)
07. Silk (feat. Sarah Rebecca) (04:04)
08. No Gazing (05:19)
09. The Box (03:45)
10. Rien Ne Se Perd (04:23)



--------------------------------------------------------------------------------
Analyzed: La Mverte / The Inner Out
--------------------------------------------------------------------------------

DR Peak RMS Duration Track
--------------------------------------------------------------------------------
DR7 -0.49 dB -9.63 dB 5:14 01-Past the Circles
DR9 -0.49 dB -10.58 dB 3:47 02-Square Triangle
DR8 -0.50 dB -9.43 dB 4:45 03-The Inner Out
DR7 -0.50 dB -9.56 dB 5:37 04-Going Astray
DR7 -0.40 dB -9.18 dB 4:34 05-Crash Course (feat. Yan Wagner)
DR8 -0.50 dB -9.55 dB 4:19 06-The Devil in the Details
DR9 -0.50 dB -10.62 dB 4:04 07-Silk (feat. Sarah Rebecca)
DR7 -0.46 dB -9.69 dB 5:19 08-No Gazing
DR9 -0.50 dB -10.32 dB 3:45 09-The Box
DR8 -0.48 dB -10.21 dB 4:23 10-Rien Ne Se Perd
--------------------------------------------------------------------------------

Number of tracks: 10
Official DR value: DR8

Samplerate: 44100 Hz
Channels: 2
Bits per sample: 24
Bitrate: 1518 kbps
Codec: FLAC
================================================================================

FLAC 24/44.1 DOWNLOAD ~ Download 24/44.1 FLAC


password: BlondStyle

Alternative download links

Turbobit

Related MP3 FLAC to La Mverte - The Inner Out (2017) Hi-Res
Feedback
All rights reserved.
WEBBG.com © 2000-2018