Slow Magic - Float (2017) HDtracks
MP3 FLAC WMA APE HD

Slow Magic - Float (2017) HDtracks

Artist: Slow Magic
Title: Float
Year Of Release: 2017-10-06
Label: Downtown/Interscope Records
Genre: Electronic, Synth-pop, Ambient
Quality: FLAC (tracks) [24bit/44.1kHz]
Total Time: 42:58
Total Size: 514,97 Mb (Front Cover)
WebSite:

Slow Magic, has announced his new album, Float. The album drops October 6th on Downtown/Interscope. Float is Slow Magic’s third proper studio album and follows up 2014’s How To Run Away. Along with the announcement of Float, Slow Magic is sharing a new single, “Light,” featuring Tropics. “‘Light’ is one of my favorites from the upcoming album. It started with a harp sample I was playing on my keyboard. I really enjoyed the way it played and ended up just messing around with it for hours. I wanted the song to convey the tension between a really calm and expected moment, suddenly followed by something intense. Light has always been an inspiration of mine. It can determine and define our surroundings in a way nothing else really can – it even dictates our mood and emotions. When Chris from Tropics sent me the lyrics it worked perfectly. He captured in a love song everything I wanted to say musically.” Work on Float began during a trip to Iceland. Slow Magic cites the surreal change in light that far north as an inspiration. “The sun never really went away. It was eternal,” Slow Magic explains. “I wanted to approach this album in ways I never had before.” That meant recording live drums at a studio in Stockholm normally reserved for metal bands. Once the instrumentals took shape, Slow Magic enlisted vocalists Peter Silberman (from The Antlers), Kate Boy, Tropics, Toulouse, and MNDR to help complete Float. “My last album How To Run Away was about my life at that time, really just moving at all times, running away from any reality and problems. I wanted to capture that feeling of freedom of youth when nothing really seems to matter in the long term. A lot of the songs were about specific places in the world I was able to experience for the very first time.” “On Float I wanted to go back to the beginning of Slow Magic. I wanted to capture the raw sounds and feelings and freedom of my first albums and How To Run Away while expanding and evolving into something completely new. Most of the songs started very stripped down, just with piano and organic instruments. I let the songs write themselves without forcing them to go anywhere they didn’t naturally go.” ~by Slow Magic~
Release of this HDtracks edition: 2017, October, 6 [Label: Downtown/Interscope Records]
(p)(c) 2017 Slow Magic under exclusive license to Downtown/Interscope Records.

Tracklist:

01. Valhalla (03:16)
02. Mind (feat. Kate Boy) (03:42)
03. Skeleton Pink (03:17)
04. Shivers (feat. MNDR) (04:23)
05. Drum (02:43)
06. Belong 2 Me (feat. Peter Silberman) (04:34)
07. Diamond Ring (01:37)
08. Wildfire (03:25)
09. = (02:46)
10. <3 (03:32)
11. Light (feat. Tropics) (03:49)
12. Midnight Sun (03:58)
13. Relent (Ambient) (01:55)



--------------------------------------------------------------------------------
Analyzed: Slow Magic / Float
--------------------------------------------------------------------------------

DR Peak RMS Duration Track
--------------------------------------------------------------------------------
DR6 0.00 dB -9.55 dB 3:16 01-Valhalla
DR5 0.00 dB -7.52 dB 3:42 02-Mind
DR7 0.00 dB -9.28 dB 3:17 03-Skeleton Pink
DR6 0.00 dB -8.92 dB 4:23 04-Shivers
DR5 0.00 dB -8.31 dB 2:43 05-Drum
DR7 0.00 dB -10.74 dB 4:34 06-Belong 2 Me
DR10 -0.05 dB -13.47 dB 1:37 07-Diamond Ring
DR6 0.00 dB -9.24 dB 3:25 08-Wildfire
DR7 0.00 dB -10.47 dB 2:46 09-=
DR8 0.00 dB -12.50 dB 3:32 10-<3
DR6 0.00 dB -9.73 dB 3:49 11-Light
DR8 0.00 dB -10.71 dB 3:58 12-Midnight Sun
DR11 -5.59 dB -22.03 dB 1:55 13-Relent (Ambient)
--------------------------------------------------------------------------------

Number of tracks: 13
Official DR value: DR7

Samplerate: 44100 Hz
Channels: 2
Bits per sample: 24
Bitrate: 1209 kbps
Codec: FLAC
================================================================================

FLAC 24/44.1 DOWNLOAD ~ Download 24/44.1 FLAC


password: BlondStyle

Alternative download links

Turbobit

Related MP3 FLAC to Slow Magic - Float (2017) HDtracks
Feedback
All rights reserved.
WEBBG.com © 2000-2018