Blank Jones - Relax: Edition Ten (2017) Hi-Res
MP3 FLAC WMA APE HD

Blank Jones - Relax: Edition Ten (2017) Hi-Res

Artist: Blank & Jones
Title: Relax Edition 10
Year Of Release: 2017-07-07
Label: Soundcolours
Genre: Electronic, Downtempo, Chillout, Ambient
Quality: FLAC (tracks) [24bit/44.1kHz]
Total Time: 01:42:21
Total Size: 1,12 Gb (Front Cover)
WebSite:

Blank & Jones present the soundtrack for the summer with their tenth Relax instalment. 20 new songs inspire with their unique mix of warm acoustic sounds and subtle electronic finesse. The handpicked guest vocalists Coralie Clement, Jason Caesar, Emma Brammer and Zoe Dee give the Balearic Vibes the special note.
Release of this Qobuz edition: 2017, July, 7 [Label: Soundcolours]

Tracklist:

Disc 1: Siesta II Sunset

01. Blank & Jones - Glow (06:15)
02. Blank & Jones with Zoe Dee - Pure Shores (04:22)
03. Blank & Jones - Pelican Bay (04:31)
04. Blank & Jones with Coralie Clément - Jardin D'Hiver (03:16)
05. Blank & Jones - Barefoot On The Beach (05:44)
06. Blank & Jones with Zoe Dee - 10.000 Emerald Pools (05:01)
07. Blank & Jones - Good (05:22)
08. Blank & Jones - My Island (04:20)
09. Blank & Jones - Snappiness (05:20)
10. Blank & Jones - Wishing (04:16)

Disc 2: Sunset II Sunrise

01. Blank & Jones with Emma Brammer - Give It To Me (05:31)
02. Blank & Jones - Caliente (06:01)
03. Blank & Jones with Jason Caesar - Sun Starts Smiling (05:02)
04. Blank & Jones - Flamingo (04:10)
05. Blank & Jones - Optimistic (05:00)
06. Blank & Jones - Spiritual (05:51)
07. Blank & Jones - Island Trip (05:26)
08. Blank & Jones - Everybody (04:41)
09. Blank & Jones - Helios (05:54)
10. Blank & Jones - El Bajo (06:19)



--------------------------------------------------------------------------------
Analyzed: Blank & Jones / Relax Edition 10
--------------------------------------------------------------------------------

DR Peak RMS Duration Track
--------------------------------------------------------------------------------
DR10 -0.73 dB -12.85 dB 6:15 01-Glow
DR10 -0.73 dB -12.56 dB 4:22 02-Pure Shores
DR9 -0.73 dB -11.69 dB 4:31 03-Pelican Bay
DR10 -0.73 dB -12.08 dB 3:16 04-Jardin D'hiver
DR10 -0.73 dB -12.77 dB 5:44 05-Barefoot on the Beach
DR10 -0.73 dB -13.04 dB 5:01 06-10.000 Emerald Pools
DR9 -0.73 dB -12.72 dB 5:22 07-Good
DR10 -0.73 dB -13.16 dB 4:20 08-My Island
DR9 -1.65 dB -13.34 dB 5:20 09-Snappiness
DR11 -0.73 dB -16.31 dB 4:16 10-Wishing
DR4 -0.79 dB -7.48 dB 5:31 01-Give It to Me
DR5 -0.79 dB -7.42 dB 6:01 02-Caliente
DR5 -0.79 dB -7.48 dB 5:02 03-Sun Starts Smiling
DR6 -0.79 dB -8.49 dB 4:10 04-Flamingo
DR6 -0.79 dB -7.21 dB 5:00 05-Optimistic
DR5 -0.79 dB -7.84 dB 5:51 06-Spiritual
DR5 -0.79 dB -7.82 dB 5:26 07-Island Trip
DR5 -0.79 dB -7.63 dB 4:41 08-Everybody
DR5 -0.79 dB -7.33 dB 5:54 09-Helios
DR4 -0.79 dB -5.30 dB 6:19 10-El Bajo
--------------------------------------------------------------------------------

Number of tracks: 20
Official DR value: DR7

Samplerate: 44100 Hz
Channels: 2
Bits per sample: 24
Bitrate: 1527 kbps
Codec: FLAC
================================================================================

FLAC 24/44.1 DOWNLOAD ~ Download 24/44.1 FLAC

Turbobit
|

password: BlondStyle

Alternative download links

Part 1 Part 2

Related MP3 FLAC to Blank Jones - Relax: Edition Ten (2017) Hi-Res
Feedback
All rights reserved.
WEBBG.com © 2000-2018