All Sides - Dedalus (2007)
MP3 FLAC WMA APE HD

All Sides - Dedalus (2007)

Artist: All Sides
Title Of Album: Dedalus
Year Of Release: 2007
Genre: Experimental/Ambient/Post-Rock/Drone
Label: Make Mine Music
Country: U.K.
Format: FLAC/tracks+.cue+.log+Covers/
Quality: Lossless
Total Time: 54:07 min
Total Size: 279 Mb
Tracklist:
---------
1. - The Idea [5:35]
2. - They Come By Night [4:04]
3. - Luv [3:41]
4. - Dedalus [7:01]
5. - The Unfinished End of H.W. [5:29]
6. - Mistake [2:55]
7. - Against The Sun [5:09]
8. - Runaway [5:56]
9. - Icarus [4:11]
10. - Into The Sea [4:50]
11. - Stay [5:15]
Exact Audio Copy V0.99 prebeta 5 from 4. May 2009
EAC extraction logfile from 20. November 2010, 19:45
All Sides / Dedalus
Used drive : Optiarc DVD RW AD-7170A Adapter: 1 ID: 0
Read mode : Secure
Utilize accurate stream : Yes
Defeat audio cache : Yes
Make use of C2 pointers : No
Read offset correction : 48
Overread into Lead-In and Lead-Out : No
Fill up missing offset samples with silence : Yes
Delete leading and trailing silent blocks : No
Null samples used in CRC calculations : Yes
Used interface : Native Win32 interface for Win NT & 2000
Gap handling : Appended to previous track
Used output format : User Defined Encoder
Selected bitrate : 128 kBit/s
Quality : High
Add ID3 tag : No
Command line compressor : C:Program FilesExact Audio CopyFlacflac.exe
Additional command line options : -8 -V %s
TOC of the extracted CD
Track | Start | Length | Start sector | End sector
---------------------------------------------------------
1 | 0:00.00 | 5:35.03 | 0 | 25127
2 | 5:35.03 | 4:03.67 | 25128 | 43419
3 | 9:38.70 | 3:41.21 | 43420 | 60015
4 | 13:20.16 | 7:01.09 | 60016 | 91599
5 | 20:21.25 | 5:28.61 | 91600 | 116260
6 | 25:50.11 | 2:55.34 | 116261 | 129419
7 | 28:45.45 | 5:09.01 | 129420 | 152595
8 | 33:54.46 | 5:56.35 | 152596 | 179330
9 | 39:51.06 | 4:10.61 | 179331 | 198141
10 | 44:01.67 | 4:50.00 | 198142 | 219891
11 | 48:51.67 | 5:15.11 | 219892 | 243527
Track 1
Filename F:CDAll Sides [2007] Dedalus1. All Sides – The Idea.wav
Pre-gap length 0:00:02.00
Peak level 99.3 %
Track quality 99.9 %
Test CRC 4626B29C
Copy CRC 4626B29C
Accurately ripped (confidence 1) [D08A4E92]
Copy OK
Track 2
Filename F:CDAll Sides [2007] Dedalus2. All Sides – They Come By Night.wav
Pre-gap length 0:00:02.00
Peak level 99.5 %
Track quality 100.0 %
Test CRC 8209338C
Copy CRC 8209338C
Accurately ripped (confidence 1) [4E2FD9F3]
Copy OK
Track 3
Filename F:CDAll Sides [2007] Dedalus3. All Sides – Luv.wav
Pre-gap length 0:00:02.00
Peak level 50.4 %
Track quality 100.0 %
Test CRC 9BE3E078
Copy CRC 9BE3E078
Accurately ripped (confidence 1) [B7141C78]
Copy OK
Track 4
Filename F:CDAll Sides [2007] Dedalus4. All Sides – Dedalus.wav
Pre-gap length 0:00:02.00
Peak level 99.3 %
Track quality 100.0 %
Test CRC 35119CE3
Copy CRC 35119CE3
Accurately ripped (confidence 1) [7BC189A7]
Copy OK
Track 5
Filename F:CDAll Sides [2007] Dedalus5. All Sides – The Unfinished End of H.W..wav
Pre-gap length 0:00:02.00
Peak level 99.2 %
Track quality 100.0 %
Test CRC DA4159CF
Copy CRC DA4159CF
Accurately ripped (confidence 1) [4C90E104]
Copy OK
Track 6
Filename F:CDAll Sides [2007] Dedalus6. All Sides – Mistake.wav
Pre-gap length 0:00:02.00
Peak level 80.2 %
Track quality 100.0 %
Test CRC CA27BDF7
Copy CRC CA27BDF7
Accurately ripped (confidence 1) [2F56D8A2]
Copy OK
Track 7
Filename F:CDAll Sides [2007] Dedalus7. All Sides – Against The Sun.wav
Pre-gap length 0:00:02.00
Peak level 99.5 %
Track quality 100.0 %
Test CRC CD5B2014
Copy CRC CD5B2014
Accurately ripped (confidence 1) [800E10C7]
Copy OK
Track 8
Filename F:CDAll Sides [2007] Dedalus8. All Sides – Runaway.wav
Pre-gap length 0:00:02.00
Peak level 99.2 %
Track quality 100.0 %
Test CRC A7B4C78F
Copy CRC A7B4C78F
Accurately ripped (confidence 1) [5CB7C00C]
Copy OK
Track 9
Filename F:CDAll Sides [2007] Dedalus9. All Sides – Icarus.wav
Pre-gap length 0:00:02.00
Peak level 99.3 %
Track quality 100.0 %
Test CRC 2D409D54
Copy CRC 2D409D54
Accurately ripped (confidence 1) [A9CA83BE]
Copy OK
Track 10
Filename F:CDAll Sides [2007] Dedalus10. All Sides – Into The Sea.wav
Pre-gap length 0:00:02.00
Peak level 74.1 %
Track quality 100.0 %
Test CRC C9438A25
Copy CRC C9438A25
Accurately ripped (confidence 1) [E8189959]
Copy OK
Track 11
Filename F:CDAll Sides [2007] Dedalus11. All Sides – Stay.wav
Pre-gap length 0:00:02.00
Peak level 99.1 %
Track quality 99.9 %
Test CRC 0EA75AD6
Copy CRC 0EA75AD6
Accurately ripped (confidence 1) [C50D00EA]
Copy OK
All tracks accurately ripped
No errors occurred
End of status report
Download




Alternative download links

Download|Letitbit.net

Related MP3 FLAC to All Sides - Dedalus (2007)
Feedback
All rights reserved.
WEBBG.com © 2000-2018