Jerry Lee Lewis - A Whole Lotta... Jerry Lee Lewis: The Definitive Retrospective 4CD Box Set (2012) FLAC
MP3 FLAC WMA APE HD

Jerry Lee Lewis - A Whole Lotta... Jerry Lee Lewis: The Definitive Retrospective 4CD Box Set (2012) FLAC

Artist: Jerry Lee Lewis
Title: A Whole Lotta Jerry Lee Lewis
Year Of Release: 2012-04-02
Label: Salvo Records (UK)
Genre: Pop/Rock, Rock 'n' Roll, Rockabilly, Honky Tonk, Country
Quality: FLAC (tracks+.cue+.log)
Total Time: 04:55:50
Total Size: 1,96 Gb (Full Scans~62,19 Mb)
WebSite:

Four CD Box set consisting of 106 hits and rare tracks including a selection of duets with Linda Gail. The box includes a 72 page book with rare photos and exclusive content. ~Amazon~
There is no shortage of Jerry Lee Lewis anthologies - the early Sun years in particular have been ripe for compiling - so it's been easy to overlook a glaring gap in his catalog: a comprehensive career overview. The closest there's been is Rhino's terrific double-disc All Killer, No Filler, but Salvo's 2012 box A Whole Lotta Jerry Lee Lewis trumps that 1993 set handily. It may arrive nearly two decades later - 20 years that saw two separate comebacks from the Killer, neither of which are featured here - but this set also stops in the '80s, so what A Whole Lotta Jerry Lee Lewis has going for it is depth, particularly regarding his country sides for Smash/Mercury. Unlike most Jerry Lee comps, this skimps on Sun. Those seminal sides end 13 cuts into this 106-track set, which really isn't enough, particularly when you take into account such missing sides as "Down the Line," "It'll Be Me," and "All Night Long." Nevertheless, this makes up for it by delving deep into those country sides, which is certainly a rich vein to mine. All the hits are here, along with a great deal of lesser-known gems including a bunch of duets with Linda Gail Lewis, covers of classics, and newer tunes by Kris Kristofferson. It may not be perfect - it's hampered slightly by that lack of Sun cuts - but it is the compilation that comes closest to capturing the full, righteous glory of Jerry Lee Lewis in a relatively concise fashion. ~Review by Stephen Thomas Erlewine~
Release of this 4CD Set: 2012, April, 2 [CD Salvo Records (UK), Cat.# SALVOBX410 / UPC: 698458841025]
(p)(c) 2012 Union Square Music Ltd.
Salvo is a Union Square Music label.
Manufactured in the E.U.

Tracklist:

Disc 1

01. Crazy Arms
02. Whole Lotta Shakin' Goin' On
03. Great Balls Of Fire
04. You Win Again
05. Breathless
06. High School Confidential
07. Lewis Boogie
08. Break Up
09. I ll Sail My Ship Alone
10. Lovin Up A Storm
11. What'd I Say
12. Cold Cold Heart
13. Hit The Road Jack
14. Pen And Paper
15. I'm On Fire
16. She Was My Baby (He Was My Friend)
17. High Heel Sneakers
18. Just In Time
19. Baby, Hold Me Close
20. I Believe In You
21. Green Green Grass Of Home
22. Baby (You've Got What It Takes) (with Linda Gail Lewis)
23. Detroit City
24. Rockin' Jerry Lee
25. Memphis Beat
26. Big Boss Man
27. It's A Hang-Up Baby
28. Turn On Your Love Light
29. Shotgun Man

--------------------------------------------------------------------------------
Analyzed: Jerry Lee Lewis / A Whole Lotta Jerry Lee Lewis (Disc 1)
--------------------------------------------------------------------------------

DR Peak RMS Duration Track
--------------------------------------------------------------------------------
DR10 -0.20 dB -12.61 dB 2:45 01-Crazy Arms
DR9 -0.20 dB -12.14 dB 2:54 02-Whole Lotta Shakin' Goin' On
DR11 -0.20 dB -12.95 dB 1:53 03-Great Balls Of Fire
DR8 -0.20 dB -11.29 dB 2:57 04-You Win Again
DR10 -0.20 dB -12.51 dB 2:44 05-Breathless
DR9 -0.20 dB -10.38 dB 2:31 06-High School Confidential
DR9 -0.20 dB -11.07 dB 2:01 07-Lewis Boogie
DR8 -0.20 dB -10.29 dB 2:39 08-Break Up
DR8 -0.20 dB -9.95 dB 2:10 09-I'll Sail My Ship Alone
DR8 -0.20 dB -11.32 dB 1:52 10-Lovin' Up A Storm
DR7 -0.20 dB -9.02 dB 2:28 11-What'd I Say
DR7 -0.20 dB -8.61 dB 3:08 12-Cold Cold Heart
DR9 -0.20 dB -10.19 dB 1:56 13-Hit The Road Jack
DR8 -0.20 dB -10.13 dB 2:29 14-Pen And Paper
DR9 -0.20 dB -10.64 dB 2:24 15-I'm On Fire
DR8 -0.20 dB -10.44 dB 2:18 16-She Was My Baby (He Was My Friend)
DR9 -0.20 dB -10.68 dB 3:42 17-High Heel Sneakers
DR9 -0.20 dB -10.17 dB 2:55 18-Just In Time
DR8 -0.20 dB -10.24 dB 3:06 19-Baby, Hold Me Close
DR8 -0.20 dB -9.81 dB 2:34 20-I Believe In You
DR8 -0.20 dB -9.54 dB 2:41 21-Green Green Grass Of Home
DR8 -0.20 dB -9.74 dB 2:37 22-Baby, You've Got What It Takes
DR10 -0.20 dB -11.51 dB 2:46 23-Detroit City
DR8 -0.20 dB -10.29 dB 2:41 24-Rockin' Jerry Lee
DR9 -0.20 dB -10.40 dB 2:50 25-Memphis Beat
DR9 -0.20 dB -10.25 dB 2:52 26-Big Boss Man
DR9 -0.20 dB -11.08 dB 2:15 27-It's A Hang Up Baby
DR9 -0.20 dB -10.59 dB 2:31 28-Turn On Your Lovelight
DR9 -0.20 dB -10.84 dB 2:43 29-Shotgun Man
--------------------------------------------------------------------------------

Number of tracks: 29
Official DR value: DR9

Samplerate: 44100 Hz
Channels: 2
Bits per sample: 16
Bitrate: 934 kbps
Codec: FLAC
================================================================================
Disc 2

01. Another Place, Another Time
02. Walking The Floor Over You
03. I'm A Lonesome Fugitive
04. What's Made Milwaukee Famous (Has Made A Loser Out Of Me)
05. She Still Comes Around (To Love What's Left Of Me)
06. To Make Love Sweeter For You
07. There Stands The Glass
08. Don't Let Me Cross Over (with Linda Gail Lewis)
09. Jackson (with Linda Gail Lewis)
10. One Has My Name (The Other Has My Heart)
11. Invitation To Your Party
12. Earth Up Above (with Linda Gail Lewis)
13. She Even Woke Me Up To Say Goodbye
14. One Minute Past Eternity
15. Roll Over Beethoven (with Linda Gail Lewis)
16. Working Man Blues
17. Wine Me Up
18. Once More With Feeling
19. I Can't Seem To Say Goodbye
20. There Must Be More To Love Than This
21. Waiting For A Train
22. In Loving Memories
23. Sweet Georgia Brown
24. Touching Home
25. When He Walks On You (Like You Walked On Me)
26. Would You Take Another Chance On Me
27. Me And Bobby McGee
28. Thirteen At The Table

--------------------------------------------------------------------------------
Analyzed: Jerry Lee Lewis / A Whole Lotta Jerry Lee Lewis (Disc 2)
--------------------------------------------------------------------------------

DR Peak RMS Duration Track
--------------------------------------------------------------------------------
DR9 -0.20 dB -11.02 dB 2:26 01-Another Place, Another Time
DR9 -0.20 dB -10.13 dB 2:08 02-Walking The Floor Over You
DR10 -0.20 dB -11.69 dB 3:00 03-I'm A Lonesome Fugitive
DR9 -0.20 dB -11.12 dB 2:36 04-What's Made Milwaukee Famous (Has Made A Loser Out Of Me)
DR9 -0.20 dB -10.46 dB 2:29 05-She Still Comes Around (To Love What's Left Of Me)
DR8 -0.20 dB -10.47 dB 2:50 06-To Make Love Sweeter For You
DR8 -0.20 dB -9.82 dB 2:36 07-There Stands The Glass
DR8 -0.20 dB -10.49 dB 2:57 08-Don't Let Me Cross Over (with Linda Gail Lewis)
DR8 -0.20 dB -10.01 dB 2:22 09-Jackson (with Linda Gail Lewis)
DR8 -0.20 dB -11.22 dB 2:39 10-One Has My Name (The Other Has My Heart)
DR9 -0.20 dB -11.06 dB 1:57 11-Invitation To Your Party
DR8 -0.20 dB -9.49 dB 2:00 12-Earth Up Above (with Linda Gail Lewis)
DR7 -0.20 dB -9.54 dB 2:40 13-She Even Woke Me Up To Say Goodbye
DR9 -0.20 dB -10.54 dB 2:05 14-One Minute Past Eternity
DR8 -0.20 dB -9.94 dB 2:00 15-Roll Over Beethoven (with Linda Gail Lewis)
DR8 -0.20 dB -9.76 dB 2:55 16-Working Man's Blues
DR9 -0.20 dB -9.86 dB 2:23 17-Wine Me Up
DR8 -0.20 dB -10.08 dB 2:25 18-Once More With Feeling
DR10 -0.20 dB -12.85 dB 2:35 19-I Can't Seem To Say Goodbye
DR8 -0.20 dB -9.73 dB 2:43 20-There Must Be More To Love Than This
DR10 -0.20 dB -11.82 dB 1:42 21-Waiting For A Train
DR8 -0.20 dB -9.91 dB 3:15 22-In Loving Memories
DR8 -0.20 dB -9.10 dB 2:30 23-Sweet Georgia Brown
DR8 -0.20 dB -9.56 dB 2:38 24-Touching Home
DR7 -0.20 dB -8.57 dB 2:31 25-When He Walks On You (Like You Have Walked On Me)
DR8 -0.20 dB -10.29 dB 2:52 26-Would You Take Another Chance On Me
DR8 -0.20 dB -9.86 dB 3:12 27-Me And Bobby McGee
DR9 -0.20 dB -9.93 dB 3:36 28-Thirteen At The Table
--------------------------------------------------------------------------------

Number of tracks: 28
Official DR value: DR8

Samplerate: 44100 Hz
Channels: 2
Bits per sample: 16
Bitrate: 918 kbps
Codec: FLAC
================================================================================
Disc 3

01. Chantilly Lace
02. Think About It Darlin'
03. Walk A Mile In My Shoes
04. Lonely Weekends
05. Me And Jesus (with Linda Gail Lewis)
06. Who's Gonna Play This Old Piano
07. No Honky Tonks In Heaven
08. No Traffic Out Of Abilene
09. No More Hanging On
10. Drinkin' Wine Spo-Dee-O-Dee
11. Bad Moon Rising
12. Juke Box
13. No Headstone On My Grave
14. Sometimes A Memory Ain't Enough
15. Ride Me Down Easy
16. I'm Left, You're Right, She's Gone
17. Just A Little Bit
18. Big Blue Diamonds
19. Tell Tale Signs
20. He Can't Fill My Shoes
21. Honey Hush
22. I Can Still Hear The Music In The Rest Room
23. House Of Blue Lights
24. Boogie Woogie Country Man
25. A Damn Good Country Song

--------------------------------------------------------------------------------
Analyzed: Jerry Lee Lewis / A Whole Lotta Jerry Lee Lewis (Disc 3)
--------------------------------------------------------------------------------

DR Peak RMS Duration Track
--------------------------------------------------------------------------------
DR8 -0.20 dB -10.30 dB 2:50 01-Chantilly Lace
DR8 -0.20 dB -9.67 dB 2:34 02-Think About It Darlin'
DR8 -0.20 dB -9.49 dB 3:03 03-Walk A Mile In My Shoes
DR8 -0.20 dB -9.76 dB 1:44 04-Lonely Weekends
DR9 -0.20 dB -10.31 dB 2:39 05-Me And Jesus (with Linda Gail Lewis)
DR8 -0.20 dB -9.63 dB 3:18 06-Who's Gonna Play This Old Piano
DR7 -0.20 dB -9.28 dB 2:29 07-No Honky Tonks In Heaven
DR7 -0.20 dB -9.28 dB 2:45 08-No Traffic Out Of Abilene
DR7 -0.20 dB -10.40 dB 3:13 09-No More Hanging On
DR8 -0.20 dB -8.76 dB 3:39 10-Drinkin' Wine Spo-Dee-O-Dee
DR8 -0.20 dB -10.09 dB 2:39 11-Bad Moon Rising
DR8 -0.20 dB -9.46 dB 4:41 12-Juke Box
DR8 -0.20 dB -10.88 dB 5:23 13-No Headstone On My Grave
DR8 -0.20 dB -10.86 dB 2:56 14-Sometimes A Memory Ain't Enough
DR8 -0.20 dB -10.87 dB 2:48 15-Ride Me Down Easy
DR8 -0.20 dB -9.81 dB 2:20 16-I'm Left, You're Right, She's Gone
DR9 -0.20 dB -10.57 dB 3:09 17-Just A Little Bit
DR9 -0.20 dB -11.48 dB 4:21 18-Big Blue Diamonds
DR8 -0.20 dB -10.42 dB 2:27 19-Tell Tale Signs
DR7 -0.20 dB -9.67 dB 2:33 20-He Can't Fill My Shoes
DR8 -0.20 dB -10.53 dB 2:16 21-Honey Hush
DR9 -0.20 dB -11.34 dB 2:31 22-I Can Still Hear The Music In The Restroom
DR9 -0.20 dB -11.51 dB 2:19 23-House Of Blue Lights
DR8 -0.20 dB -11.01 dB 3:42 24-Boogie Woogie Country Man
DR9 -0.20 dB -10.95 dB 2:06 25-A Damn Good Country Song
--------------------------------------------------------------------------------

Number of tracks: 25
Official DR value: DR8

Samplerate: 44100 Hz
Channels: 2
Bits per sample: 16
Bitrate: 904 kbps
Codec: FLAC
================================================================================
Disc 4

01. Don't Boogie Woogie
02. I Can't Keep My Hands Off Of You
03. I Don't Want To Be Lonely Tonight
04. Let's Put It Back Together Again
05. Jerry Lee's Rock And Roll Revival Show
06. The Closest Thing To You
07. Middle Age Crazy
08. Tennessee Saturday Night
09. Come On In
10. I'll Find It Where I Can
11. I Hate You
12. Rockin' My Life Away
13. I Wish I Was Eighteen Again
14. Who Will The Next Fool Be
15. When Two Worlds Collide
16. Over The Rainbow
17. Thirty-Nine And Holding
18. I'm So Lonesome I Could Cry
19. My Fingers Do The Talkin'
20. Come As You Were
21. Honky Tonk Rock And Roll Piano Man
22. Why You Been Gone So Long
23. Sixteen Candles (with Johnny Cash, Roy Orbison & Carl Perkins)
24. Wild One (with David Kemper and Gerald McGee)

--------------------------------------------------------------------------------
Analyzed: Jerry Lee Lewis / A Whole Lotta Jerry Lee Lewis (Disc 4)
--------------------------------------------------------------------------------

DR Peak RMS Duration Track
--------------------------------------------------------------------------------
DR8 -0.20 dB -10.53 dB 2:36 01-Don't Boogie Woogie
DR10 -0.20 dB -13.22 dB 3:14 02-I Can't Keep My Hands Off You
DR8 -0.20 dB -10.21 dB 3:14 03-I Don't Want To Be Lonely Tonight
DR9 -0.20 dB -12.41 dB 3:19 04-Let's Put It Back Together Again
DR9 -0.20 dB -11.79 dB 2:51 05-Jerry Lee's Rock 'N' Roll Revival Show
DR9 -0.20 dB -12.83 dB 3:15 06-The Closest Thing To You
DR9 -0.20 dB -12.58 dB 3:52 07-Middle Age Crazy
DR9 -0.20 dB -11.30 dB 2:30 08-Tennessee Saturday Night
DR8 -0.20 dB -11.75 dB 2:32 09-Come On In
DR9 -0.20 dB -11.70 dB 2:46 10-I'll Find It Where I Can
DR8 -0.20 dB -10.51 dB 2:12 11-I Hate You
DR7 -0.20 dB -8.44 dB 3:26 12-Rockin' My Life Away
DR7 -0.20 dB -8.97 dB 3:42 13-I Wish I Was Eighteen Again
DR8 -0.20 dB -9.42 dB 5:49 14-Who Will The Next Fool Be
DR8 -0.20 dB -9.29 dB 2:30 15-When Two Worlds Collide
DR9 -0.20 dB -11.11 dB 3:46 16-Over The Rainbow
DR9 -0.20 dB -10.06 dB 2:57 17-Thirty-Nine And Holding
DR8 -0.20 dB -9.61 dB 2:42 18-I'm So Lonesome I Could Cry
DR8 -0.20 dB -10.15 dB 2:50 19-My Fingers Do The Talkin'
DR8 -0.20 dB -11.11 dB 2:26 20-Come As You Were
DR8 -0.20 dB -10.05 dB 2:30 21-Honky Tonk Rock 'N' Roll Piano Man
DR9 -0.20 dB -10.80 dB 2:55 22-Why You Been Gone So Long
DR10 -0.20 dB -13.41 dB 3:47 23-Sixteen Candles
DR9 -0.20 dB -10.93 dB 2:21 24-Wild One
--------------------------------------------------------------------------------

Number of tracks: 24
Official DR value: DR9

Samplerate: 44100 Hz
Channels: 2
Bits per sample: 16
Bitrate: 941 kbps
Codec: FLAC
================================================================================


FLAC DOWNLOAD ~ Download FLAC
|
|

SCANS DOWNLOAD ~ Download SCANS


password: BlondStyle
See also:




Alternative download links

Disc 1 Disc 2 Disc 3 Disc 4 Artwork

Related MP3 FLAC to Jerry Lee Lewis - A Whole Lotta... Jerry Lee Lewis: The Definitive Retrospective 4CD Box Set (2012) FLAC
Feedback
All rights reserved.
WEBBG.com © 2000-2018