Tony Fontane - Sings Of Decision, Comfort, Assurance (19672017) HDtracks
MP3 FLAC WMA APE HD

Tony Fontane - Sings Of Decision, Comfort, Assurance (19672017) HDtracks

Artist: Tony Fontane
Title: Sings Of Decision, Comfort, Assurance
Year Of Release: 2017
Label: RCA/Legacy
Genre: Folk, Country, Religious, Gospel
Quality: FLAC (tracks) [24bit/192kHz]
Total Time: 32:02
Total Size: 1,12 Gb (Front Cover)
WebSite:

Tony Fontane (1925–1974) was a popular American recording artist in the 1940s and 1950s who gave up his career in popular music to become a gospel singer following a near-fatal car accident in 1957. Due to his high, clear tenor voice and unrelenting sense of purpose, he became one of the world's most famous gospel singers, performing in concert halls and churches around the globe and recording many albums for RCA. ~Wikipedia~
Release of the album: 1967 [LP RCA Victor, Cat.# LSP-3800, USA]
Release of this HDtracks edition: 2017 [Label: RCA/Legacy]
(p) Originally released 1967. All rights reserved by RCA Records, a division of Sony Music Entertainment.

Credits:

Engineer – John Norman
Producer – Darol Rice


Tracklist:

01. Now I Belong To Jesus
02. Jesus, I Come
03. Lord, I'm Coming Home
04. Are You Living Where God Answers Prayer
05. He Leadeth Me
06. No Night There
07. The Haven Of Rest
08. A Shelter In The Time Of Storm
09. Jesus, Lover Of My Soul
10. The Bible My Mother Left To Me
11. It Is Well With My Soul
12. How Can This All Be For Me?

--------------------------------------------------------------------------------
Analyzed: Tony Fontane / Sings of Decision, Comfort, Assurance
––––––––––––––––––––––––––––––––––––––––

DR Peak RMS Duration Track
––––––––––––––––––––––––––––––––––––––––
DR10 -1.06 dB -14.06 dB 2:15 01-Now I Belong to Jesus
DR9 -0.78 dB -13.90 dB 2:55 02-Jesus, I Come
DR10 -1.17 dB -13.81 dB 3:04 03-Lord, I'm Coming Home
DR10 -0.78 dB -14.24 dB 3:02 04-Are You Living Where God Answers Prayer
DR11 -0.12 dB -14.68 dB 2:37 05-He Leadeth Me
DR10 -1.36 dB -13.79 dB 2:28 06-No Night There
DR10 -0.37 dB -12.74 dB 2:38 07-The Haven of Rest
DR10 -0.37 dB -12.85 dB 2:35 08-A Shelter In the Time of Storm
DR9 -1.17 dB -12.89 dB 2:40 09-Jesus, Lover of My Soul
DR11 -0.03 dB -14.17 dB 3:05 10-The Bible My Mother Left to Me
DR10 -0.98 dB -13.99 dB 2:23 11-It Is Well with My Soul
DR10 -0.44 dB -13.77 dB 2:20 12-How Can This All Be for Me
––––––––––––––––––––––––––––––––––––––––

Number of tracks: 12
Official DR value: DR10

Samplerate: 192000 Hz
Channels: 2
Bits per sample: 24
Bitrate: 4495 kbps
Codec: FLAC
================================================================================

FLAC 24/192 DOWNLOAD ~ Download 24/192 FLAC

Turbobit
|

password: BlondStyle

Alternative download links

Part 1 Part 2

Related MP3 FLAC to Tony Fontane - Sings Of Decision, Comfort, Assurance (19672017) HDtracks
Feedback
All rights reserved.
WEBBG.com © 2000-2018