Tammy Wynette - The First Lady (19702013) HDtracks
MP3 FLAC WMA APE HD

Tammy Wynette - The First Lady (19702013) HDtracks

Artist: Tammy Wynette
Title: The First Lady
Year Of Release: 2013 (1970-10-05)
Label: Columbia Nashville Legacy
Genre: Country, Country-Pop, Nashville Sound
Quality: FLAC (tracks) [24bit/96kHz]
Total Time: 30:12
Total Size: 654,19 Mb (Front Cover)
WebSite:

"The First Lady" is the eighth studio album by American country music singer-songwriter Tammy Wynette. It was released on October 5, 1970, by Epic Records. The album peaked at #2 on the Billboard Country Albums chart. The album's single, "Run, Woman, Run", peaked at #1 on the Billboard Country Singles chart, Wynette's ninth song to top the chart. ~Wikipedia~
Release of the album: 1970, October, 5 [LP Epic, Cat.# E 30213, USA]
Release of this HDtracks edition: 2013 [Label: Columbia Nashville Legacy]
(p) 1970 Sony Music Entertainment.
(c) 2013 Sony Music Entertainment.

Credits:

Backing Vocals – The Jordanaires
Engineer – Charlie Bragg, Lou Bradley
Liner Notes – John Gabree
Producer – Billy Sherrill


Tracklist:

01. Run, Woman, Run (02:28)
02. I Wish I Had A Mommy Like You (03:36)
03. True And Lasting Love (02:35)
04. I Never Once Stopped Loving You (03:00)
05. Safe In These Lovin' Arms Of Mine (02:15)
06. Sally Trash (02:31)
07. My Daddy Doll (02:57)
08. The Lovin' Kind (03:05)
09. He's Still My Man (02:36)
10. Buy Me A Daddy (02:35)
11. Playin Around With Love (02:28)

--------------------------------------------------------------------------------
Analyzed: Tammy Wynette / The First Lady
--------------------------------------------------------------------------------

DR Peak RMS Duration Track
--------------------------------------------------------------------------------
DR12 -2.59 dB -17.58 dB 2:29 01-Run, Woman, Run
DR13 0.00 dB -17.66 dB 3:36 02-I Wish I Had a Mommy Like You
DR13 -2.32 dB -18.94 dB 2:36 03-True and Lasting Love
DR12 -2.98 dB -17.82 dB 3:00 04-I Never Once Stopped Loving You
DR12 -1.28 dB -16.25 dB 2:16 05-Safe in These Lovin' Arms of Mine
DR13 0.00 dB -15.62 dB 2:32 06-Sally Trash
DR13 0.00 dB -17.43 dB 2:57 07-My Daddy Doll
DR14 -0.44 dB -18.57 dB 3:06 08-The Lovin' Kind
DR13 -2.33 dB -20.22 dB 2:37 09-He's Still My Man
DR13 -0.42 dB -17.36 dB 2:35 10-Buy Me a Daddy
DR12 -2.54 dB -17.34 dB 2:28 11-Playin Around with Love
--------------------------------------------------------------------------------

Number of tracks: 11
Official DR value: DR13

Samplerate: 96000 Hz
Channels: 2
Bits per sample: 24
Bitrate: 3039 kbps
Codec: FLAC
================================================================================

FLAC 24/96 DOWNLOAD ~ Download 24/96 FLAC


password: BlondStyle

Alternative download links

Turbobit

Related MP3 FLAC to Tammy Wynette - The First Lady (19702013) HDtracks
Feedback
All rights reserved.
WEBBG.com © 2000-2018