Graham Bonnet - Anthology 1968-2017 2CD+DVD (2017)
MP3 FLAC WMA APE HD

Graham Bonnet - Anthology 1968-2017 2CD+DVD (2017)

Artist: Graham Bonnet
Title: Anthology 1968-2017
Year Of Release: 2014-04-28
Label: HNE Recordings / Cherry Red Records (UK)
Genre: Pop/Rock, Blues Rock, Classic Rock, Hard-Rock
Quality: FLAC (img.+.cue+.log) | DVD5: NTSC 16:9 (720x480) VBR / Dolby AC3, 2 ch
Total Time: 02:36:32 | 01:42:36
Total Size: 1,12 | 2,76 Gb (Full Scans-78,25 Mb)
WebSite:

Graham Bonnet's "Anthology" is the first all encompassing, career spanning career retrospective from this highly respected singer and song writer, from his first hits of the late 1960s, right up to the Graham Bonnet Band in 2017. Few frontmen can claim to have had such a lengthy and far-reaching career, first finding fame as part of The Marbles duo, who enjoyed a hit with the Bee Gees' 'Only One Woman' in 1968, followed by a solo career across the 1970s, again enjoying further success with the Bee Gees on the disco flavoured 'Warm Ride'. Over the years, Graham has also found time to reunite with Impellitteri, and more recently for successful shows with Alcatrazz and The Michael Schenker Group. Now fronting the Graham Bonnet Band, represented here by an unreleased version of the Rainbow hit 'All Night Long', plus new songs 'My Kingdom Come' and 'Mirror Lies', this "Anthology" is completed by a DVD of many rare video clips taken from across Graham's career, and includes some track-by-track intros from Graham, filmed especially for this collection.
Release of this 2CD+DVD Set: 2017, April, 28 [CDs HNE Recordings / Cherry Red Records (UK), Cat.# HNEBOX071 / UPC: 5013929917101]
Digital Remasters (p) 1968-2017 Various labels - see booklet for details.
(c) 2017 HNE Recordings.
HNE (Hear No Evil) Recordings is a Cherry Red label.
Made in EU/MCPS
Disc 1
01. Only One Woman, 1968
(Robin Gibb/Barry Gibb/Maurice Gibb)
02. It's All Over Now Baby Blue, 1977
(Bob Dylan)
03. Warm Ride, 1978
(Robin Gibb/Barry Gibb/Maurice Gibb)
04. Bad Girl, 1979
(Blackmore/Glover)
05. Night Games, 1981
(Hamilton)
06. S.O.S., 1981
(Russ Ballard)
07. Girl From Uptown, 1982
(Schenker/Bonnet)
08. Island In The Sun, 1983
(Bonnet/Malmsteen/Waldo)
09. Hiroshima Mon Amour, 1983
(Bonnet/Malmsteen)
10. Since You Been Gone (Live), 1984
(Russ Ballard)
11. God Blessed Video, 1985
(Graham Bonnet/Steve Vai)
12. Will You Be Home Tonight, 1985
(Graham Bonnet/Steve Vai)
13. Skyfire, 1985
(Graham Bonnet/Steve Vai)
14. Blue Boar, 1986
(Johnson/Waldo/Eime/Bonnet)
15. Stand In Line, 1988
(Chris Impellitteri/Graham Bonnet)
16. Tonight I Fly, 1988
(Chris Impellitteri/Graham Bonnet)
17. Midnight Crossing (1989 Demo), 2017
(Graham Bonnet)
18. Hit And Run, 1989
(Ray Fenwick/Pete Prescott)
19. Let The Wild Run Free, 1990
(Russ Ballard)
20. All Night Long (2015 Version), 2017
(Blackmore/Glover)
Disc 2
01. Look Don't Touch, 1991
(Graham Bonnet)
02. Afterlife, 1993
(Bonnet/Kulick/Rosen/Waldo)
03. We Won't Be Forgotten, 1993
(Kulick/Kulick/Taylor)
04. Don't Kill The Thrill, 2016
(Kulick/Waldo/Bonnet)
05. Breakaway, 1997
(Josephine Eime)
06. Killer, 1999
(Josephine Eime/Danny Johnson/Kevin Valentine)
07. Hunting Time, 2000
(Naoto Shibata)
08. Hungry Soul, 2000
(Naoto Shibata)
09. Love In Vain, 2000
(Naoto Shibata)
10. Perfect Crime, 2002
(Chris Impellitteri/Graham Bonnet)
11. Fighters Fist, 2006
(Neil Taylor/Graham Bonnet)
12. Radio Luxembourg, 2006
(Neil Taylor/Graham Bonnet)
13. You Are Your Money (Demo), 2017
(Dario Mollo/ Graham Bonnet)
14. Lost In Hollywood, 1996
(Blackmore/Glover)
15. My Kingdom Come, 2015
(Graham Bonnet)
16. Mirror Lies, 2015
(Russ Ballard)
--------------------------------------------------------------------------------
Analyzed: Alcatrazz featuring Steve Vai / Anthology [Disc 1]
--------------------------------------------------------------------------------
DR Peak RMS Duration Track
--------------------------------------------------------------------------------
DR8 -0.26 dB -9.33 dB 3:30 11-GOD BLESSED VIDEO
DR8 -0.26 dB -10.42 dB 5:03 12-WILL YOU BE HOME TONIGHT
DR9 -0.26 dB -10.46 dB 3:54 13-SKYFIRE
--------------------------------------------------------------------------------
Number of tracks: 3
Official DR value: DR9
Samplerate: 44100 Hz
Channels: 2
Bits per sample: 16
Bitrate: 969 kbps
Codec: FLAC
================================================================================
--------------------------------------------------------------------------------
Analyzed: Alcatrazz featuring Yngwie J. Malmsteen / Anthology [Disc 1] (1-3)
Alcatrazz / Anthology [Disc 1]
Forcefield / Anthology [Disc 1] (5-6)
Graham Bonnet Band / Anthology [Disc 1]
--------------------------------------------------------------------------------
DR Peak RMS Duration Track
--------------------------------------------------------------------------------
DR8 -0.26 dB -10.02 dB 3:56 08-ISLAND IN THE SUN
DR9 -0.26 dB -10.25 dB 4:02 09-HIROSHIMA MON AMOUR
DR9 -0.26 dB -10.59 dB 3:24 10-SINCE YOU BEEN GONE (LIVE)
DR9 -0.26 dB -10.37 dB 3:16 14-BLUE BOAR
DR9 -0.26 dB -10.56 dB 3:27 18-HIT AND RUN
DR9 -0.26 dB -10.43 dB 4:34 19-LET THE WILD RUN FREE
DR9 -0.26 dB -10.68 dB 3:51 20-ALL NIGHT LONG (2015 VERSION)
--------------------------------------------------------------------------------
Number of tracks: 7
Official DR value: DR9
Samplerate: 44100 Hz
Channels: 2
Bits per sample: 16
Bitrate: 969 kbps
Codec: FLAC
================================================================================
--------------------------------------------------------------------------------
Analyzed: Graham Bonnet / Anthology [Disc 1]
--------------------------------------------------------------------------------
DR Peak RMS Duration Track
--------------------------------------------------------------------------------
DR9 -0.26 dB -10.29 dB 2:46 01-ONLY ONE WOMAN
DR9 -0.26 dB -11.02 dB 4:14 02-IT'S ALL OVER NOW BABY BLUE
DR9 -0.26 dB -10.71 dB 3:21 03-WARM RIDE
DR8 -0.26 dB -9.79 dB 3:27 05-NIGHT GAMES
DR9 -0.26 dB -11.20 dB 3:14 06-S.O.S.
DR10 -0.26 dB -11.63 dB 4:15 17-MIDNIGHT CROSSING (1989 Demo)
--------------------------------------------------------------------------------
Number of tracks: 6
Official DR value: DR9
Samplerate: 44100 Hz
Channels: 2
Bits per sample: 16
Bitrate: 969 kbps
Codec: FLAC
================================================================================
--------------------------------------------------------------------------------
Analyzed: Impellitteri / Anthology [Disc 1]
--------------------------------------------------------------------------------
DR Peak RMS Duration Track
--------------------------------------------------------------------------------
DR10 -0.26 dB -10.77 dB 4:34 15-STAND IN LINE
DR9 -0.26 dB -9.70 dB 3:53 16-TONIGHT I FLY
--------------------------------------------------------------------------------
Number of tracks: 2
Official DR value: DR9
Samplerate: 44100 Hz
Channels: 2
Bits per sample: 16
Bitrate: 969 kbps
Codec: FLAC
================================================================================
--------------------------------------------------------------------------------
Analyzed: Ritchie Blackmore's Rainbow / Anthology [Disc 1]
The Michael Schenker Group / Anthology [Disc 1]
--------------------------------------------------------------------------------
DR Peak RMS Duration Track
--------------------------------------------------------------------------------
DR9 -0.26 dB -10.08 dB 4:51 04-BAD GIRL
DR9 -0.26 dB -10.05 dB 5:21 07-GIRL FROM UPTOWN
--------------------------------------------------------------------------------
Number of tracks: 2
Official DR value: DR9
Samplerate: 44100 Hz
Channels: 2
Bits per sample: 16
Bitrate: 969 kbps
Codec: FLAC
================================================================================
--------------------------------------------------------------------------------
Analyzed: Anthem / Anthology [Disc 2]
--------------------------------------------------------------------------------
DR Peak RMS Duration Track
--------------------------------------------------------------------------------
DR9 -0.26 dB -10.22 dB 6:02 07-HUNTING TIME
DR9 -0.26 dB -10.03 dB 5:23 08-HUNGRY SOUL
DR8 -0.26 dB -9.24 dB 4:35 09-LOVE IN VAIN
--------------------------------------------------------------------------------
Number of tracks: 3
Official DR value: DR9
Samplerate: 44100 Hz
Channels: 2
Bits per sample: 16
Bitrate: 968 kbps
Codec: FLAC
================================================================================
--------------------------------------------------------------------------------
Analyzed: Blackthorne / Anthology [Disc 2] (1-3)
Elektric Zoo / Anthology [Disc 2]
Graham Bonnet Band / Anthology [Disc 2] (5-6)
--------------------------------------------------------------------------------
DR Peak RMS Duration Track
--------------------------------------------------------------------------------
DR9 -0.26 dB -10.32 dB 5:24 02-AFTERLIFE
DR9 -0.26 dB -10.50 dB 6:03 03-WE WON'T BE FORGOTTEN
DR9 -0.26 dB -10.48 dB 4:39 04-DON'T KILL THE THRILL
DR8 -0.26 dB -9.34 dB 4:12 13-YOU ARE YOUR MONEY (DEMO)
DR8 -0.26 dB -10.93 dB 5:34 15-MY KINGDOM COME
DR9 -0.26 dB -10.12 dB 5:13 16-MIRROR LIES
--------------------------------------------------------------------------------
Number of tracks: 6
Official DR value: DR9
Samplerate: 44100 Hz
Channels: 2
Bits per sample: 16
Bitrate: 968 kbps
Codec: FLAC
================================================================================
--------------------------------------------------------------------------------
Analyzed: Graham Bonnet / Anthology [Disc 2]
--------------------------------------------------------------------------------
DR Peak RMS Duration Track
--------------------------------------------------------------------------------
DR10 -0.26 dB -11.76 dB 5:22 01-LOOK DON'T TOUCH
DR9 -0.26 dB -10.15 dB 3:34 05-BREAKAWAY
DR9 -0.26 dB -10.84 dB 4:35 06-KILLER
DR8 -0.26 dB -9.38 dB 4:57 14-LOST IN HOLLYWOOD
--------------------------------------------------------------------------------
Number of tracks: 4
Official DR value: DR9
Samplerate: 44100 Hz
Channels: 2
Bits per sample: 16
Bitrate: 968 kbps
Codec: FLAC
================================================================================
--------------------------------------------------------------------------------
Analyzed: Impellitteri / Anthology [Disc 2]
Taz Taylor / Anthology [Disc 2] (2-3)
--------------------------------------------------------------------------------
DR Peak RMS Duration Track
--------------------------------------------------------------------------------
DR8 -0.26 dB -9.11 dB 4:25 10-PERFECT CRIME
DR9 -0.26 dB -10.18 dB 4:09 11-FIGHTERS FIST
DR8 -0.26 dB -9.26 dB 3:31 12-RADIO LUXEMBOURG
--------------------------------------------------------------------------------
Number of tracks: 3
Official DR value: DR8
Samplerate: 44100 Hz
Channels: 2
Bits per sample: 16
Bitrate: 968 kbps
Codec: FLAC
================================================================================
Disc 3 - DVD-Video
01. It's All Over Now Baby Blue, 1977
02. Danny, 1977
03. Only You Can Lift Me, 1978
04. Warm Ride, 1978
05. Can't Complain, 1978
06. I'm A Lover, 1981
07. The Way That It Is, 1981
08. Anthony Boy, 1981
09. Night Games, 1981
10. Island In The Sun, 1983
11. Hiroshima Mon Amour, 1983
12. God Blessed Video, 1985
13. Stand In Line, 1988
14. Stand In Line (Alternative Version), 1988
15. The Mirror Lies, 2015
16. Stand In Line, 1988
17. Tonight I Fly, 1988
18. Leviathan, 1988
19. All Night Long, 1988
20. Secret Lover, 1988
21. Somewhere Over The Rainbow, 1988
22. Goodnight And Goodbye, 1988
23. Since You Been Gone, 1988
Technical Details of this DVD5:
Video: NTSC 720x480 (16:9) VBR
Audio: Dolby AC3, 2 ch
Title: Graham Bonnet - Anthology [DVD]
Size: 3.92 Gb ( 4 114 130,00 KBytes ) - DVD-5
Enabled regions: 1, 2, 3, 4, 5, 6, 7, 8
VTS_01 :
Play Length: 00:00:07
Video: NTSC 16:9 (720x480) VBR, Auto Letterboxed
Audio:
English (Dolby AC3, 2 ch)
VTS_02 :
Play Length: 01:42:36
Video: NTSC 16:9 (720x480) VBR, Auto Letterboxed
Audio:
English (Dolby AC3, 2 ch)
VTS_03 :
Play Length: 00:00:11
Video: NTSC 16:9 (720x480) VBR, Auto Letterboxed
Audio:
English (Dolby AC3, 2 ch)
* Menus Information *
VIDEO_TS Menu
Video:
NTSC 4:3 (720x480) VBR
English Language Unit :
Title Menu
VTS_01 Menu
Video:
NTSC 16:9 (720x480) VBR
Auto Letterboxed
English Language Unit :
Root Menu
VTS_02 Menu
Video:
NTSC 4:3 (720x480) VBR
English Language Unit :
Root Menu
VTS_03 Menu
Video:
NTSC 4:3 (720x480) VBR
English Language Unit :
Root Menu
FLAC DOWNLOAD ~ Download FLAC
|
SCANS DOWNLOAD ~ Download SCANS
DVD5 DOWNLOAD ~ Download DVD5
| |
password: BlondStyle



Alternative download links

Disc 1 Disc 2 [email protected] (PNG) Part 1 Part 2 Part 3

Related MP3 FLAC to Graham Bonnet - Anthology 1968-2017 2CD+DVD (2017)
Feedback
All rights reserved.
WEBBG.com © 2000-2018