Millie Jackson - It Hurts So Good (1973) 1989, Reissue
MP3 FLAC WMA APE HD

Millie Jackson - It Hurts So Good (1973) 1989, Reissue

Artist: Millie Jackson
Title: It Hurts So Good
Year Of Release: 1989
Label: Southbound / Ace Records Ltd. (UK)
Genre: R&B, Soul/Funk
Quality: FLAC (img.+.cue+.log) | MP3 320kbps
Total Time: 36:32
Total Size: 244,95 | 93,53 Mb (Full Scans)
WebSite:

Before hitting her stride with 1974's Caught Up, Millie Jackson delivered this tasty disc of uptown Southern soul. Both Stax raw and Philly International slick, It Hurts So Good percolates with smoky horns, snaking guitar lines, electric piano, strings, and bluesy funk grooves. In addition to her usually provocative take on relationships (both in the home and at the dark end of the street), Jackson - via Curtis Mayfield - delivers the affecting ghetto laments "I Cry," "Hypocrisy," and "Two-Faced World." And while some of the charts are a bit lacking, Jackson is solid throughout, especially on slow-burners like "Good to the Very Last Drop." A fine early offering from the diva of salacious sass. ~Review by Stephen Thomas Erlewine~
Release of this album: 1973 [LP Spring Records, Cat.# SPR 5706, USA]
Release of this CD: 1989 [CD Southbound / Ace Records Ltd. (UK), Cat.# CDSEWM 019 / UPC: 029667371926]
(p) 1973, (c) 1989 Ace Records Ltd.
Marketed and Distributed by Southbound Records
Made in the UK


Credits:

Arranged By, Conductor – Mike Lewis
Arranged By, Producer – Raeford Gerald
Art Direction – Ron Nackman
Design – Davis Fried Krieger Inc.
Orchestrated By – Lew DelGatto, Tony Camillo
Photography By – Ronnie Braithwaite
Producer, Arranged By, Conductor – Brad Shapiro


Tracklist:

01. "I Cry" (04:17)
(Gary Byrd, Raeford Gerald)
02. "Hypocrisy" (02:15)
(Millie Jackson, Victor Davis)
03. "Two-Faced World" (03:51)
(Johanna Hall, John Hall)
04. "It Hurts So Good" (03:13)
(P Mitchell)
05. "Don't Send Nobody Else" (03:22)
(Nick Ashford , Valerie Simpson)
06. "Hypocrisy (Reprise)" (02:02)
(Millie Jackson, Victor Davis)
07. "Good To The Very Last Drop" (03:49)
(Billy Nichols)
08. "Help Yourself" (03:04)
(Brad Shapiro, Robert Pucetti)
09. "Love Doctor" (02:55)
(Jackie Avery)
10. "Now That You Got It" (02:34)
(Tom Bridwell)
11. "Close My Eyes" (03:12)
(Billy Nichols)
12. "Breakaway (Reprise)" (01:57)
(Raeford Gerald)

--------------------------------------------------------------------------------
Analyzed: Millie Jackson / It Hurts So Good
--------------------------------------------------------------------------------

DR Peak RMS Duration Track
--------------------------------------------------------------------------------
DR11 -0.24 dB -13.12 dB 4:17 01-I Cry
DR11 -0.12 dB -12.67 dB 2:15 02-Hypocrisy
DR10 -0.16 dB -11.38 dB 3:51 03-Two-Faced World
DR10 -0.14 dB -12.76 dB 3:13 04-It Hurts So Good
DR10 -0.03 dB -11.48 dB 3:22 05-Don't Send Nobody Else
DR10 -0.28 dB -12.00 dB 2:02 06-Hypocrisy (Reprise)
DR10 -0.03 dB -11.83 dB 3:49 07-Good To The Very Last Drop
DR11 -0.47 dB -14.43 dB 3:04 08-Help Yourself
DR10 -0.18 dB -12.30 dB 2:55 09-Love Doctor
DR11 -0.36 dB -13.04 dB 2:34 10-Now That You Got It
DR9 -0.12 dB -9.71 dB 3:12 11-Close My Eyes
DR9 -0.09 dB -10.57 dB 1:57 12-Breakaway (Reprise)
--------------------------------------------------------------------------------

Number of tracks: 12
Official DR value: DR10

Samplerate: 44100 Hz
Channels: 2
Bits per sample: 16
Bitrate: 864 kbps
Codec: FLAC
================================================================================


FLAC DOWNLOAD ~ Download FLAC


password: BlondStyle

MP3 DOWNLOAD ~ Download MP3


Alternative download links

Turbobit Turbobit

Related MP3 FLAC to Millie Jackson - It Hurts So Good (1973) 1989, Reissue
Feedback
All rights reserved.
WEBBG.com © 2000-2018