Rick Astley - Hold Me In Your Arms (1988) 2010, 2CD Deluxe Edition
MP3 FLAC WMA APE HD

Rick Astley - Hold Me In Your Arms (1988) 2010, 2CD Deluxe Edition

Artist: Rick Astley
Title: Hold Me In Your Arms (2CD Deluxe Edition)
Year Of Release: 2010-04-12 (1988-11-26)
Label: Edsel Records (EU)
Genre: Pop, Blue-Eyed Soul, Eurobeat
Quality: FLAC (img.+.cue+.log)
Total Time: 02:37:01
Total Size: 1,16 Gb (Full Scans)
WebSite:

Hold Me in Your Arms is the second album by the British pop singer Rick Astley, released in November 1988 on RCA Records serving as the follow-up to his debut album Whenever You Need Somebody. Like his previous albums, half the record was written and produced by Stock Aitken & Waterman, and the other half were Astley's own compositions produced by PWL associates Phil Harding, Ian Curnow and Daize Washbourn. The release of the album was delayed a few months due to a fire at PWL Studios destroying some of Astley's recorded material. This would be Astley's last record with Stock, Aitken & Waterman, due to Astley wanting to leave behind the dance-pop sound of the producers, of wanting to shed his boy next door image, and wanting to focus on his original compositions on his albums, reappearing in 1991 with the soul album Free. The album spawned six singles. Unlike his previous album, where all the singles were Stock, Aitken & Waterman compositions and productions, Astley's compositions were also released as singles. The lead single, "She Wants to Dance With Me", was Astley's first single which he wrote himself, and became a worldwide top 10 hit. In Europe, "Take Me to Your Heart" and "Hold Me in Your Arms" were released as the next singles. "Giving Up on Love" was released as the second single off the album in the USA and Canada, and was later released in some countries of continental Europe as the fourth and last single off the album, and a cover of The Temptations' "Ain't Too Proud to Beg" was released as the third and last single in the USA and Japan. The album continued Astley's success, with the three UK singles becoming top 10 hits. While the record did not achieve the same level of sales as his debut album, it sold well all around the world, achieving Platinum and Gold certifications worldwide. A remastered version, containing some remixes, was released in 2010. ~Wikipedia~
Release of this album: 1988, November, 26 [LP RCA Records, Cat.# PL71932, EU]
Release of this CD: 2010, April, 12 [CD Edsel Records (EU), Cat.# EDSD 2079 / UPC: 740155207939]
(p) 1987, 1988, 1989, 2010 PWL.
(c) 2010 Demon Music Group Ltd.
All tracks licensed courtesy of Sony Music Entertainment UK Ltd / BMG Rights Management UK.
Marketed by Edsel.
Manufactured in the EU

Credits:
Compiled By, Liner Notes – Tom Parker
Engineer – Karen Hewitt (tracks: 1-2 to 1-4, 1-6 to 1-9, 1-12), Mark McGuire (tracks: 1-5, 1-11), Mike Duffy (tracks: 1-2 to 1-4, 1-6 to 1-9, 1-12), Phil Harding (tracks: 1-1, 1-10), Yoyo (tracks: 1-2 to 1-4, 1-6 to 1-9, 1-12)
Mixed By – Dave Ford (tracks: 1-2, 1-3, 1-6, 2-14), Karen Hewitt (tracks: 1-12), Pete Hammond (tracks: 1-4, 1-7 to 1-9), Phil Harding (tracks: 1-1, 1-5, 1-10, 1-11, 2-13)
Producer – Daize Washbourn (tracks: 1-4, 1-7 to 1-9, 2-2, 2-6, 2-9, 2-12), Curnow (tracks: 1-1, 1-13, 2-3, 2-8, 2-10, 2-13), Ian Curnow (tracks: 1-10, 1-6, 2-5 ), Harding (tracks: 1-1, 1-13, 2-3, 2-8, 2-10, 2-13), Phil Harding (tracks: 1-10, 1-16, 2-5), Astley (tracks: 1-1, 1-13, 2-3, 2-8, 2-10, 2-13), Rick Astley (tracks: 1-4, 1-7 to 1-9, 2-2, 2-6, 2-9, 2-12), Stock, Aitken & Waterman (tracks: 1-2, 1-3, 1-5, 1-6, 1-11,1-12, 1-14, 1-1-15, 2-1, 2-4, 2-7, 2-11, 2-14)

Tracklist:
Disc 1: "Hold Me In Your Arms" + Bonus Tracks
01. She Wants To Dance With Me [03:16]
02. Take Me To Your Heart [03:30]
03. I Don't Want To Lose Her [03:34]
04. Giving Up On Love [04:04]
05. Ain't Too Proud To Beg [04:19]
06. Till Then (Time Stands Still) [03:18]
07. Dial My Number [04:10]
08. I'll Never Let You Down [03:58]
09. I Don't Want To Be Your Lover [04:02]
10. Hold Me In Your Arms [04:33]
Bonus Tracks:
11. My Arms Keep Missing You [03:15]
12. I'll Be Fine [03:41]
13. She Wants To Dance With Me (Extended Mix) [07:10]
14. Take Me To Your Heart (Autumn Leaves Mix) [06:41]
15. My Arms Keep Missing You (The No L Mix) [06:47]
16. Hold Me In Your Arms (Extended Mix) [07:37]
17. Rick's Hit Mix (Megamix) [05:52]
Disc 2: The Remixes
01. My Arms Keep Missing You (The "Where's Harry" Remix) [03:14]
02. Giving Up On Love (7" R&B Remix) [04:08]
03. She Wants To Dance With Me (Bordering On A Collie Mix) [06:08]
04. Take Me To Your Heart (The Dick Dastardly Mix) [06:59]
05. Hold Me In Your Arms (Hold Me In Your Prayers Mix) [06:52]
06. Giving Up On Love (12" R&B Extended Mix) [07:09]
07. My Arms Keep Missing You (Bruno's Mix) [06:17]
08. She Wants To Dance With Me (US Remix) [05:44]
09. Giving Up On Love (12" Pop Extended Mix) [07:20]
10. She Wants To Dance With Me (Dave Ford Remix) [05:04]
11. My Arms Keep Missing You (Dub) [04:57]
12. Giving Up On Love (12" Dub Mix) [04:53]
13. She Wants To Dance With Me (Instrumental) [04:56]
14. Take Me To Your Heart (Instrumental) [03:32]
--------------------------------------------------------------------------------
Analyzed: Rick Astley / Hold Me In Your Arms (CD 1)
--------------------------------------------------------------------------------
DR Peak RMS Duration Track
--------------------------------------------------------------------------------
DR10 -0.05 dB -11.12 dB 3:17 01-She Wants To Dance With Me
DR10 -0.05 dB -11.14 dB 3:30 02-Take Me To Your Heart
DR9 -0.05 dB -10.40 dB 3:33 03-I Don't Want To Lose Her
DR9 -0.05 dB -10.72 dB 4:04 04-Giving Up On Love
DR10 -0.05 dB -11.34 dB 4:19 05-Ain't Too Proud To Beg
DR9 -0.05 dB -10.51 dB 3:18 06-Till Then (Time Stands Still)
DR10 -0.05 dB -11.27 dB 4:11 07-Dial My Number
DR10 -0.05 dB -11.25 dB 3:58 08-I'll Never Let You Down
DR10 -0.05 dB -11.19 dB 4:01 09-I Don't Want To Be Your Lover
DR9 -0.05 dB -11.27 dB 4:33 10-Hold Me In Your Arms
DR10 -0.05 dB -11.78 dB 3:15 11-My Arms Keep Missing You
DR10 -0.05 dB -11.32 dB 3:42 12-I'll Be Fine
DR11 -0.05 dB -12.55 dB 7:10 13-She Wants To Dance With Me (Extended Mix)
DR10 -0.05 dB -11.26 dB 6:40 14-Take Me To Your Heart (Autumn Leaves Mix)
DR11 -0.05 dB -12.94 dB 6:47 15-My Arms Keep Missing You (No L Mix)
DR10 -0.05 dB -12.61 dB 7:38 16-Hold Me In Your Arms (Extended Mix)
DR11 -0.05 dB -12.41 dB 5:51 17-Rick's Hit Mix (Megamix)
--------------------------------------------------------------------------------
Number of tracks: 17
Official DR value: DR10
Samplerate: 44100 Hz
Channels: 2
Bits per sample: 16
Bitrate: 963 kbps
Codec: FLAC
================================================================================
--------------------------------------------------------------------------------
Analyzed: Rick Astley / Hold Me In Your Arms (CD 2)
--------------------------------------------------------------------------------
DR Peak RMS Duration Track
--------------------------------------------------------------------------------
DR8 -0.05 dB -9.61 dB 3:16 01-My Arms Keep Missing You (The ''Where's Harry'' Remix)
DR9 -0.05 dB -10.45 dB 4:08 02-Giving Up On Love (7'' R&B Remix)
DR10 -0.05 dB -11.93 dB 6:07 03-She Wants To Dance With Me (Bordering On A Collie Mix)
DR8 -0.05 dB -10.36 dB 7:00 04-Take Me To Your Heart (The Dick Dastardly Mix)
DR8 -0.05 dB -10.15 dB 6:52 05-Hold Me In Your Arms (Hold Me In Your Prayers Mix)
DR8 -0.05 dB -9.46 dB 7:08 06-Giving Up On Love (12'' R&B Extended Mix)
DR9 -0.05 dB -10.55 dB 6:17 07-My Arms Keep Missing You (Bruno's Mix)
DR9 -0.05 dB -10.80 dB 5:44 08-She Wants To Dance With Me (US Remix)
DR9 -0.05 dB -10.45 dB 7:20 09-Giving Up On Love (12'' Pop Extended Mix)
DR6 -0.05 dB -7.92 dB 5:05 10-She Wants To Dance With Me (Dave Ford Remix)
DR10 -0.05 dB -11.69 dB 4:57 11-My Arms Keep Missing You (Dub)
DR9 -0.05 dB -10.73 dB 4:53 12-Giving Up On Love (12'' Dub Mix)
DR11 -0.05 dB -11.94 dB 4:56 13-She Wants To Dance With Me (Instrumental)
DR10 -0.05 dB -10.69 dB 3:31 14-Take Me To Your Heart (Instrumental)
--------------------------------------------------------------------------------
Number of tracks: 14
Official DR value: DR9
Samplerate: 44100 Hz
Channels: 2
Bits per sample: 16
Bitrate: 995 kbps
Codec: FLAC
================================================================================
FLAC DOWNLOAD ~ Download FLAC
|
password: BlondStyle



Alternative download links

Disc 1 Disc 2 Artwork

Related MP3 FLAC to Rick Astley - Hold Me In Your Arms (1988) 2010, 2CD Deluxe Edition
Feedback
All rights reserved.
WEBBG.com © 2000-2018