Gillan Glover - Accidentally On Purpose (1988, remaster 2010)
MP3 FLAC WMA APE HD

Gillan Glover - Accidentally On Purpose (1988, remaster 2010)

Artist: Gillan & Glover
Title Of Album: Accidentally On Purpose
Year Of Release: 1988, remaster 2010
Label: Edsel (EU), EDSS 1044
Genre: Pop/Soft Rock
Quality: Lossless
Bitrate: FLAC image + cue + log + scans
Total Time: 00:51:38
Total Size: 381 MB (3% rec.)
Remastered reissue of the former Deep Purple vocalist's collaboration album with former fellow Deep Purple bandmate Roger Glover. As opposed to DP burn and smash guitar and organ based sound, "Accidentally on Purpose" consists of mixture of lighter styles, including pop rock, tropical pop, rock'n'roll (played with taste and humor), and, specifically, synthesizer/bass driven sound. Ian Gillan considers it to be "one of the top five records of my career".
The album was released in February 1988 on Virgin Records; the track "Lonely Avenue" appeared on the soundtrack to "Rain Man" movie.
,
Tracklist
1. Clouds And Rain [04:02]
2. Evil Eye [04:13]
3. She Took My Breath Away [04:34]
4. Dislocated [03:23]
5. Via Miami [05:00]
6. I Can't Dance To That [04:26]
7. Can't Believe You Wanna Leave [03:11]
8. Lonely Avenue [03:08]
9. Telephone Box [05:17]
10. I Thought No [03:35]
Bonus tracks
11. Cayman Island [03:57]
12. Purple People Eater [02:36]
13. Chet [04:16]
Total time 00:51:38
Exact Audio Copy V0.99 prebeta 5 from 4. May 2009
Отчёт EAC об извлечении, выполненном 12. января 2011, 15:21
Gillan & Glover / Accidentally On Purpose (EDSS 1044, Rip by ley-barmaley)
Дисковод: ASUS DRW-1814BL Adapter: 0 ID: 0
Режим чтения : Достоверность
Использование точного потока : Да
Отключение кэша аудио : Да
Использование указателей C2 : Нет
Коррекция смещения при чтении : 6
Способность читать области Lead-in и Lead-out : Нет
Заполнение пропущенных сэмплов тишиной : Да
Удаление блоков с тишиной в начале и конце : Нет
При вычислениях CRC использовались нулевые сэмплы : Да
Интерфейс : Встроенный Win32-интерфейс для Win NT/2000
Выходной формат : Внутренние WAV-операции
Формат сэмплов : 44.100 Гц; 16 бит; стерео
TOC извлечённого CD
Трек | Старт | Длительность | Начальный сектор | Конечный сектор
---------------------------------------------------------------------
1 | 0:00.00 | 4:02.55 | 0 | 18204
2 | 4:02.55 | 4:13.11 | 18205 | 37190
3 | 8:15.66 | 4:34.54 | 37191 | 57794
4 | 12:50.45 | 3:23.60 | 57795 | 73079
5 | 16:14.30 | 5:00.22 | 73080 | 95601
6 | 21:14.52 | 4:26.12 | 95602 | 115563
7 | 25:40.64 | 3:11.08 | 115564 | 129896
8 | 28:51.72 | 3:08.09 | 129897 | 144005
9 | 32:00.06 | 5:17.44 | 144006 | 167824
10 | 37:17.50 | 3:35.28 | 167825 | 183977
11 | 40:53.03 | 3:57.35 | 183978 | 201787
12 | 44:50.38 | 2:36.73 | 201788 | 213560
13 | 47:27.36 | 4:16.32 | 213561 | 232792
Характеристики диапазона извлечения и сообщения об ошибках
Выбранный диапазон
Имя файла G:ley-barmaleylossless-galaxy.ruGillan & Glover - Accidentally On Purpose (EDSS 1044, Rip by ley-barmaley).wav
Пиковый уровень 98.8 %
Качество диапазона 100.0 %
CRC теста F223E862
CRC копии F223E862
Копирование... OK
Ошибок не произошло

AccurateRip: сводка

Трек 1 нет в базе данных
Трек 2 нет в базе данных
Трек 3 нет в базе данных
Трек 4 нет в базе данных
Трек 5 нет в базе данных
Трек 6 нет в базе данных
Трек 7 нет в базе данных
Трек 8 нет в базе данных
Трек 9 нет в базе данных
Трек 10 нет в базе данных
Трек 11 нет в базе данных
Трек 12 нет в базе данных
Трек 13 нет в базе данных

Ни одного трека нет в базе AccurateRip
Конец отчёта
Download:
(filesonic.com)
| |
(hotfile.com)
| |
(uploaded.to)
| |





Alternative download links

Download part 1 Download part 2 Download part 3 Download part 1 Download part 2 Download part 3

Related MP3 FLAC to Gillan Glover - Accidentally On Purpose (1988, remaster 2010)
Feedback
All rights reserved.
WEBBG.com © 2000-2018