Robert Goulet - I Remember You (19662016) HDtracks
MP3 FLAC WMA APE HD

Robert Goulet - I Remember You (19662016) HDtracks

Artist: Robert Goulet
Title: I Remember You
Year Of Release: 2016
Label: Columbia/Legacy
Genre: Pop, Vocal, Stage & Screen
Quality: FLAC (tracks) [24bit/96kHz]
Total Time: 33:24
Total Size: 811,18 Mb (Front Cover)
WebSite:

His face was more famous than his voice, but Robert Goulet recorded a string of popular albums for Columbia during the 1960s, striking the pop charts with several hits and earning a 1962 Grammy Award. Born in 1933 in Lawrence, MA, Goulet was raised in Edmonton, Alberta, where he first studied acting and singing as a teenager. He appeared on Canadian television in the early '50s, but moved to New York and by the end of the decade was fit into a prime Broadway role: Sir Lancelot, in Lerner & Loewe's Camelot (with Julie Andrews and Richard Burton). A starring role in several films proved less than successful, however. He began singing in the early '60s as well, and after an appearance on The Ed Sullivan Show, Goulet signed to Columbia in 1962. His single "What Kind of Fool Am I?" became a modest hit later that year, and early in 1963 he won a Grammy for Best New Artist. Like many vocal artists of the day, however, Goulet became a bankable LP seller rather than a chart success, and though he made a surprise Top 20 showing of "My Love, Forgive Me (Amore, Scusami)" in 1964, it was his last hit. The album My Love Forgive Me reached number five and became a gold seller, and Goulet continued recording until 1970, when he moved into concert and television work. In 1993, Goulet mounted a production of Camelot, this time trading roles to play the more aged King Arthur. That same year he appeared, in animated form, on an episode of The Simpsons. In 1996 he starred in the film Mr. Wrong and three years later he was the singing voice of Wheezy the Penguin in the animated feature Toy Story 2. The year 2000 found him in a revival of South Pacific and in 2005 he was back on Broadway starring in La Cage aux Folles. In 2006 he was given a spot on Canada's Walk of Fame. A year later he was featured in a bizarre and hilarious commercial for the Emerald Nut Company that aired during Super Bowl XLI. He died in late 2007 while awaiting a lung transplant for relief from a rare form of pulmonary fibrosis. ~Review by John Bush~
Release of this album: 1966 [LP Columbia, Cat.# CS 9282, USA]
Release of this HDtracks edition: 2016, July [Label: Columbia/Legacy]
(p) Originally released 1966. All rights reserved by Columbia Records, a division of Sony Music Entertainment
Produced by Ernie Altschuler
Tracklist:
01. Gone With The Wind (03:22)
(H. Magidson, A. Wrubel)
02. Skylark (02:51)
(H. Carmichael)
03. I Hadn’t Anyone Till You (03:03)
(R. Noble)
04. Young Only Yesterday (02:23)
(B. Perper)
05. Call Me Irresponsible (02:46)
(S. Cahn, J. Van Heusen)
06. I Remember You (03:05)
(J. Mercer, V. Schertzinger)
07. Imagination (03:07)
(J. Burke, J. Van Heusen)
08. I’ll Remember April (03:25)
(P. Johnston, G. de Paul, D. Raye)
09. It’s A Blue World (03:14)
(B. Wright, C. Forrest)
10. My Ideal (02:56)
(L. Robin, R. A. Whiting, N. Chase)
11. These Foolish Things (Remind Me Of You) (03:12)
(H. Marvell, J. Strachey, H. Link)
--------------------------------------------------------------------------------
Analyzed: Robert Goulet / I Remember You
--------------------------------------------------------------------------------
DR Peak RMS Duration Track
--------------------------------------------------------------------------------
DR10 -0.10 dB -12.31 dB 3:22 01-Gone with the Wind
DR10 -0.68 dB -13.17 dB 2:51 02-Skylark
DR10 -0.10 dB -14.27 dB 3:03 03-I Hadn't Anyone Till You
DR10 -0.10 dB -12.01 dB 2:23 04-Young Only Yesterday
DR10 -0.10 dB -13.05 dB 2:46 05-Call Me Irresponsible
DR11 -0.10 dB -13.08 dB 3:05 06-I Remember You
DR11 -0.50 dB -14.07 dB 3:07 07-Imagination
DR10 -0.10 dB -12.75 dB 3:25 08-I'll Remember April
DR10 -0.92 dB -13.58 dB 3:14 09-It's a Blue World
DR10 -0.10 dB -12.99 dB 2:56 10-My Ideal
DR11 -0.10 dB -13.60 dB 3:12 11-These Foolish Things (Remind Me of You)
--------------------------------------------------------------------------------
Number of tracks: 11
Official DR value: DR10
Samplerate: 96000 Hz
Channels: 2
Bits per sample: 24
Bitrate: 3175 kbps
Codec: FLAC
================================================================================
FLAC 24/96 DOWNLOAD ~ Download 24/96 FLAC
password: BlondStyle



Alternative download links

Turbobit

Related MP3 FLAC to Robert Goulet - I Remember You (19662016) HDtracks
Feedback
All rights reserved.
WEBBG.com © 2000-2018