Roomtone Studio - Siamese Wind (2007)
MP3 FLAC WMA APE HD

Roomtone Studio - Siamese Wind (2007)

Artist: Roomtone Studio
Title Of Album: Siamese Wind
Year Of Release: 2007
Label: Nong Taprachan Music
Genre: New age
Quality: FLAC (image+.cue) + log
Bitrate: Lossless
Total Time: 49:09
Total Size: 315 Mb
New age from Thailand
Tracklist:
01. Si Mi Lan [0:05:50.08]
02. Sam Phaendin [0:03:58.05]
03. Phon Nisai [0:04:48.47]
04. Ko Kaeo [0:04:02.44]
05. Hua Hin [0:04:21.36]
06. Phu Bai [0:06:26.56]
07. Thale Mek [0:03:16.31]
08. Thung Ap Thong [0:05:13.23]
09. Man Mok [0:05:12.26]
10. Chaiya [0:05:59.15]
Exact Audio Copy V1.0 beta 1 from 15. November 2010
EAC extraction logfile from 9. April 2011, 20:57
Roomtone Studio / Siamese Wind
Used drive : PIONEER DVD-RW DVR-118L Adapter: 4 ID: 0
Read mode : Secure
Utilize accurate stream : Yes
Defeat audio cache : Yes
Make use of C2 pointers : No
Read offset correction : 6
Overread into Lead-In and Lead-Out : No
Fill up missing offset samples with silence : Yes
Delete leading and trailing silent blocks : No
Null samples used in CRC calculations : Yes
Used interface : Native Win32 interface for Win NT & 2000
Used output format : Internal WAV Routines
Sample format : 44.100 Hz; 16 Bit; Stereo
TOC of the extracted CD
Track | Start | Length | Start sector | End sector
---------------------------------------------------------
1 | 0:00.00 | 5:50.08 | 0 | 26257
2 | 5:50.08 | 3:58.05 | 26258 | 44112
3 | 9:48.13 | 4:48.47 | 44113 | 65759
4 | 14:36.60 | 4:02.44 | 65760 | 83953
5 | 18:39.29 | 4:21.36 | 83954 | 103564
6 | 23:00.65 | 6:26.56 | 103565 | 132570
7 | 29:27.46 | 3:16.31 | 132571 | 147301
8 | 32:44.02 | 5:13.23 | 147302 | 170799
9 | 37:57.25 | 5:12.26 | 170800 | 194225
10 | 43:09.51 | 5:59.15 | 194226 | 221165
Range status and errors
Selected range
Filename C:Audio Creator Music LibraryRoomtone Studio - Siamese Wind.wav
Peak level 100.0 %
Extraction speed 0.2 X
Range quality 100.0 %
Copy CRC 11DD110D
Copy OK
No errors occurred
AccurateRip summary
Track 1 accurately ripped (confidence 1) [FA481CC5]
Track 2 accurately ripped (confidence 1) [3E85B267]
Track 3 accurately ripped (confidence 1) [696C780B]
Track 4 accurately ripped (confidence 1) [7F7B2ECE]
Track 5 accurately ripped (confidence 1) [D71E385C]
Track 6 accurately ripped (confidence 1) [E09136E9]
Track 7 accurately ripped (confidence 1) [38EF8665]
Track 8 accurately ripped (confidence 1) [83A56A9D]
Track 9 accurately ripped (confidence 1) [B8671406]
Track 10 accurately ripped (confidence 1) [50F5A963]
All tracks accurately ripped
End of status report
FileSonic
Turbobit



Alternative download links

DOWNLOAD

Related MP3 FLAC to Roomtone Studio - Siamese Wind (2007)
Feedback
All rights reserved.
WEBBG.com © 2000-2018