Billy Cobham - Warning (1985)
MP3 FLAC WMA APE HD

Billy Cobham - Warning (1985)

  • Genre: Music, Jazz, FLAC / APE
  • Formats: MP3 FLAC WMA HD APE
  • Album Size: 1470 mb.
  • Archive: ZIP RAR
Artist: Billy Cobham
Title Of Album: Warning
Year Of Release: 1985
Label: GRP Records, Inc. (GRD-9528)
Genre: Jazz, Post-Bop, Fusion
Quality: WAVPack (image+.cue) + log
Bitrate: Lossless
Total Time: 40:26
Total Size: 254 Mb
Tracklist:
1. Mozaik - 5:07
2. Red and Yellow Cabriolet - 5:12
3. Slow Body Poppin' - 5:24
4. Unknown Jeromes - 4:25
5. The Dancer - 5:19
6. Stratus - 4:34
7. Come Join Me - 5:40
8. Go for It! - 4:35
Exact Audio Copy V0.99 prebeta 4 from 23. January 2008
EAC extraction logfile from 9. October 2008, 14:56
Billy Cobham / Warning
Used drive : HL-DT-STDVDRAM GSA-4167B Adapter: 0 ID: 2
Read mode : Secure
Utilize accurate stream : Yes
Defeat audio cache : Yes
Make use of C2 pointers : No
Read offset correction : 667
Overread into Lead-In and Lead-Out : No
Fill up missing offset samples with silence : Yes
Delete leading and trailing silent blocks : No
Null samples used in CRC calculations : Yes
Used interface : Installed external ASPI interface
Used output format : User Defined Encoder
Selected bitrate : 128 kBit/s
Quality : High
Add ID3 tag : No
Command line compressor : G:Program FilesExact Audio Copywavpack.exe
Additional command line options : -hm -w "Title=%t" -w "Artist=%a" -w "Year=%y" -w "Genre=%m" %s %d
TOC of the extracted CD
Track | Start | Length | Start sector | End sector
---------------------------------------------------------
1 | 0:00.00 | 5:08.07 | 0 | 23106
2 | 5:08.07 | 5:13.23 | 23107 | 46604
3 | 10:21.30 | 5:26.10 | 46605 | 71064
4 | 15:47.40 | 4:26.10 | 71065 | 91024
5 | 20:13.50 | 5:20.15 | 91025 | 115039
6 | 25:33.65 | 4:35.05 | 115040 | 135669
7 | 30:08.70 | 5:41.47 | 135670 | 161291
8 | 35:50.42 | 4:35.53 | 161292 | 181969
Range status and errors
Selected range
Filename F:WAVBilly Cobham - Warning.wav
Peak level 100.0 %
Range quality 100.0 %
Test CRC 6E8EC038
Copy CRC 6E8EC038
Copy OK
No errors occurred
AccurateRip summary
Track 1 accurately ripped (confidence 3) [FAEA920F]
Track 2 accurately ripped (confidence 3) [7BE78FA4]
Track 3 accurately ripped (confidence 3) [73F18BC0]
Track 4 accurately ripped (confidence 3) [F7E4D61F]
Track 5 accurately ripped (confidence 3) [3F3DDBC0]
Track 6 accurately ripped (confidence 3) [ED13D4EE]
Track 7 accurately ripped (confidence 3) [733EA71A]
Track 8 accurately ripped (confidence 3) [36E0EA6F]
All tracks accurately ripped
End of status report
FileSonic.com
Turbobit.net



Alternative download links

DOWNLOAD

Related MP3 FLAC to Billy Cobham - Warning (1985)
Feedback
All rights reserved.
WEBBG.com © 2000-2018