Mr.Karavek - Pradubdao (2007)
MP3 FLAC WMA APE HD

Mr.Karavek - Pradubdao (2007)

Artist: Mr.Karavek
Title Of Album: Pradubdao
Year Of Release: 2007
Label: Thailand
Genre: Newage, Relax
Quality: FLAC (image+.cue) + log
Bitrate: Lossless
Total Time: 45:34
Total Size: 286 Mb
Tracklist:
01. Ratri Pradub Dao [0:05:11.70]
02. Kamen Phuang [0:03:54.25]
03. Lao Jao Soo [0:04:23.65]
04. Mayura Phirom [0:05:47.05]
05. Pama Prathet [0:04:25.65]
06. Thai Noi [0:06:09.01]
07. Khluen Krathop Fung [0:04:17.03]
08. Lompad Chaikao [0:03:55.59]
09. Kangkok Paksa [0:03:52.15]
10. Yo Salum [0:03:36.73]
Exact Audio Copy V1.0 beta 1 from 15. November 2010
EAC extraction logfile from 20. February 2011, 7:51
Mr.Karavek / Pradubdao
Used drive : PIONEER DVD-RW DVR-118L Adapter: 4 ID: 0
Read mode : Secure
Utilize accurate stream : Yes
Defeat audio cache : Yes
Make use of C2 pointers : No
Read offset correction : 6
Overread into Lead-In and Lead-Out : No
Fill up missing offset samples with silence : Yes
Delete leading and trailing silent blocks : No
Null samples used in CRC calculations : Yes
Used interface : Native Win32 interface for Win NT & 2000
Used output format : Internal WAV Routines
Sample format : 44.100 Hz; 16 Bit; Stereo
TOC of the extracted CD
Track | Start | Length | Start sector | End sector
---------------------------------------------------------
1 | 0:00.00 | 5:11.70 | 0 | 23394
2 | 5:11.70 | 3:54.25 | 23395 | 40969
3 | 9:06.20 | 4:23.65 | 40970 | 60759
4 | 13:30.10 | 5:47.05 | 60760 | 86789
5 | 19:17.15 | 4:25.65 | 86790 | 106729
6 | 23:43.05 | 6:09.01 | 106730 | 134405
7 | 29:52.06 | 4:17.03 | 134406 | 153683
8 | 34:09.09 | 3:55.59 | 153684 | 171367
9 | 38:04.68 | 3:52.15 | 171368 | 188782
10 | 41:57.08 | 3:36.73 | 188783 | 205055
Range status and errors
Selected range
Filename C:Audio Creator Music LibraryMr.Karavek - Pradubdao.wav
Peak level 94.4 %
Extraction speed 0.1 X
Range quality 100.0 %
Copy CRC A727D0D9
Copy OK
No errors occurred
AccurateRip summary
Track 1 accurately ripped (confidence 2) [AA8986FC]
Track 2 accurately ripped (confidence 2) [0E1D50DB]
Track 3 accurately ripped (confidence 2) [D6FB2A9E]
Track 4 accurately ripped (confidence 2) [43D4DB4D]
Track 5 accurately ripped (confidence 2) [97EB2E34]
Track 6 accurately ripped (confidence 2) [BF326DB9]
Track 7 accurately ripped (confidence 2) [54AE05C9]
Track 8 accurately ripped (confidence 2) [4A5D7D23]
Track 9 accurately ripped (confidence 2) [23CAC74E]
Track 10 accurately ripped (confidence 2) [D4B4B653]
All tracks accurately ripped
End of status report
FileSonic.com
Turbobit.net



Alternative download links

DOWNLOAD

Related MP3 FLAC to Mr.Karavek - Pradubdao (2007)
Feedback
All rights reserved.
WEBBG.com © 2000-2018