Jan Garbarek - Visible World
MP3 FLAC WMA APE HD

Jan Garbarek - Visible World

  • Genre: Music, Jazz, FLAC / APE
  • Formats: MP3 FLAC WMA HD APE
  • Album Size: 1837 mb.
  • Archive: ZIP RAR
Artist: Jan Garbarek
Title Of Album: Jan Garbarek -- Visible World
Year Of Release: 22 April 1996
Label: ECM
Genre: Jazz
Quality: FLAC
Bitrate: lossless image+CUE +LOG +COVERS
Total Size: 383,73 Mb
Everyone has their own favourite landmarks in the Jan Garbarek catalogue, from the pungent neo-Americanism of the early Afric Pepperbird to the more recent collaborations with the early music vocal group the Hilliard Ensemble. Along the way, Garbarek has explored the folk music of his native Norway, the Aeolian harp and much else besides, but the common thread is his own peculiarly phraseless saxophone style, which seems to deal in extended structural arcs rather than conventional jazz licks. Drawing as it does upon non-jazz aesthetics, Garbarek's melancholy, elemental sound has almost become a school in itself (even if he is its only member) and on this recording, less rarefied and austere than much of his output and perhaps the most easily returnable-to of his many albums, he deploys this in a variety of contexts. "The Creek", for example, is a beautiful and uplifting folkish melody which nevertheless sits perfectly happily against a backdrop of clicky drums and whooshy pads. Newcomers should certainly start here. --Roger Thomas
Tracklist:
1. Red Wind
2. The Creek
3. The Survivor
4. The Healing Smoke
5. Visible World chiari-
6. Desolate Mountains I
7. Desolate Mountains II
8. Visible World - scuro
9. Giulietta
10. Desolate Mountains III
11. Pygmy Lullaby
12. The Quest
13. The Arrow
14. The Scythe
15. Evening Land
Personnel:
Jan Garbarek - (soprano & tenor saxophone, keyboards, percussion, Meraaker clarinet), Rainer Bruninghaus - (piano, synthesizer), Eberhard Weber - (bass), Marilyn Mazur - (percussion, drums), Manu Katche - (drums), Trilok Gurtu - (tabla), Mari Boine - (vocals)
Exact Audio Copy V0.99 prebeta 4 from 23. January 2008
EAC extraction logfile from 15. June 2009, 12:51
Unknown Artist / Unknown Title
Used drive : MATSHITADVD-RAM UJ-832S Adapter: 0 ID: 1
Read mode : Secure
Utilize accurate stream : Yes
Defeat audio cache : Yes
Make use of C2 pointers : No
Read offset correction : 102
Overread into Lead-In and Lead-Out : Yes
Fill up missing offset samples with silence : Yes
Delete leading and trailing silent blocks : No
Null samples used in CRC calculations : Yes
Used interface : Installed external ASPI interface
Used output format : Internal WAV Routines
Sample format : 44.100 Hz; 16 Bit; Stereo
TOC of the extracted CD
Track | Start | Length | Start sector | End sector
---------------------------------------------------------
1 | 0:00.00 | 3:53.05 | 0 | 17479
2 | 3:53.05 | 4:33.25 | 17480 | 37979
3 | 8:26.30 | 4:46.67 | 37980 | 59496
4 | 13:13.22 | 7:16.10 | 59497 | 92206
5 | 20:29.32 | 4:09.65 | 92207 | 110946
6 | 24:39.22 | 6:47.45 | 110947 | 141516
7 | 31:26.67 | 6:02.45 | 141517 | 168711
8 | 37:29.37 | 4:34.25 | 168712 | 189286
9 | 42:03.62 | 3:46.40 | 189287 | 206276
10 | 45:50.27 | 1:33.48 | 206277 | 213299
11 | 47:24.00 | 6:14.70 | 213300 | 241419
12 | 53:38.70 | 3:00.17 | 241420 | 254936
13 | 56:39.12 | 4:23.13 | 254937 | 274674
14 | 61:02.25 | 1:50.30 | 274675 | 282954
15 | 62:52.55 | 12:29.37 | 282955 | 339166
Range status and errors
Selected range
Filename C:DownloadsConversions WAVJan Garbarek - Visible World.wav
Peak level 100.0 %
Range quality 100.0 %
Copy CRC 8A8A5C1B
Copy OK
No errors occurred
AccurateRip summary
Track 1 accurately ripped (confidence 4) [E7481B2E]
Track 2 accurately ripped (confidence 4) [6756242D]
Track 3 accurately ripped (confidence 4) [34182478]
Track 4 accurately ripped (confidence 4) [41ED936B]
Track 5 accurately ripped (confidence 4) [F8AE01FD]
Track 6 accurately ripped (confidence 4) [792510FD]
Track 7 accurately ripped (confidence 4) [12A025D5]
Track 8 accurately ripped (confidence 4) [70DDA918]
Track 9 accurately ripped (confidence 4) [629E8076]
Track 10 accurately ripped (confidence 4) [79DFE64C]
Track 11 accurately ripped (confidence 4) [8BE6BE0F]
Track 12 accurately ripped (confidence 4) [C31E1D05]
Track 13 accurately ripped (confidence 4) [44C9C295]
Track 14 accurately ripped (confidence 4) [3C3074C6]
Track 15 accurately ripped (confidence 4) [62AC683F]
All tracks accurately ripped
End of status report
Download Jan Garbarek -- Visible World :
turbobit.net:
hotfile.com
Rapidshare:
Pass: israbox.download
Thanks to the original Publicist "SergioValenti"



Alternative download links



Related MP3 FLAC to Jan Garbarek - Visible World
Feedback
All rights reserved.
WEBBG.com © 2000-2018