VA - Buddha Sounds Vol.2 - The Arabic Dream (2005) flac
MP3 FLAC WMA APE HD

VA - Buddha Sounds Vol.2 - The Arabic Dream (2005) flac

Artist: VA
Title Of Album: Buddha Sounds Vol.2 - The Arabic Dream
Year Of Release: 2005
Label: Music Brokers
Genre: Downtempo, Chillout, Ethnic
Quality: FLAC (Img,cue,log,scans)
Bitrate: lossless
Total Time: 01:02:04 min
Total Size: 376 mb
TRACKLIST
1. Meloscience Corp. (Amanjena Mix) - SynSym Flight (3:30)
2. Dew - Please say Goodbye (4:32)
3. Orleya Kas (Original Mix) - Under the sun (4:24)
4. Miss Hansen - All my dreams (4:47)
5. Lila Liu feat. Djalma - The love Supreme (4:21)
6. Desert Blend (Mamouinia Edit) - Xanadu (2:32)
7. Eli Kazah - Let me go (4:07)
8. Dew - Nair (4:37)
9. Uschi (Still Missing Remix) - I`m missing you (4:08)
10. Freedom Dub - Flash (3:38)
11. Love Reprise (Mystic Mix) - A Special Gift (1:27)
12. Seoan - Why (4:06)
13. Maria Krasnaia - On Ledianуi (3:15)
14. Speachless Project - Snow Desert (3:38)
15. Heaven Voices Mix - Far from the paradise (4:15)
16. Uschi - Out of my life (4:39)
Exact Audio Copy V0.99 prebeta 3 from 28. July 2007
EAC extraction logfile from 5. June 2008, 14:02
Various / Buddha Sounds II
Used drive : _NEC DVD_RW ND-3550A Adapter: 5 ID: 0
Read mode : Secure
Utilize accurate stream : Yes
Defeat audio cache : Yes
Make use of C2 pointers : No
Read offset correction : 48
Overread into Lead-In and Lead-Out : No
Fill up missing offset samples with silence : Yes
Delete leading and trailing silent blocks : No
Null samples used in CRC calculations : No
Used interface : Installed external ASPI interface
Used output format : User Defined Encoder
Selected bitrate : 768 kBit/s
Quality : High
Add ID3 tag : No
Command line compressor : C:ProgrammiExact Audio CopyFLACFLAC.EXE
Additional command line options : -6 -V -T "ARTIST=%a" -T "TITLE=%t" -T "ALBUM=%g" -T "DATE=%y" -T "TRACKNUMBER=%n" -T "GENRE=%m" -T "COMMENT=%e" %s -o %d
TOC of the extracted CD
Track | Start | Length | Start sector | End sector
---------------------------------------------------------
1 | 0:00.00 | 3:30.47 | 0 | 15796
2 | 3:30.47 | 4:32.43 | 15797 | 36239
3 | 8:03.15 | 4:24.11 | 36240 | 56050
4 | 12:27.26 | 4:47.53 | 56051 | 77628
5 | 17:15.04 | 4:21.48 | 77629 | 97251
6 | 21:36.52 | 2:32.10 | 97252 | 108661
7 | 24:08.62 | 4:07.39 | 108662 | 127225
8 | 28:16.26 | 4:37.53 | 127226 | 148053
9 | 32:54.04 | 4:08.60 | 148054 | 166713
10 | 37:02.64 | 3:38.57 | 166714 | 183120
11 | 40:41.46 | 1:27.51 | 183121 | 189696
12 | 42:09.22 | 4:06.16 | 189697 | 208162
13 | 46:15.38 | 3:15.03 | 208163 | 222790
14 | 49:30.41 | 3:38.47 | 222791 | 239187
15 | 53:09.13 | 4:15.52 | 239188 | 258364
16 | 57:24.65 | 4:39.15 | 258365 | 279304
Range status and errors
Selected range
Filename D:Documents and Settingssalvo.SN116508160310DocumentiVarious - Buddha Sounds II.wav
Peak level 100.0 %
Range quality 100.0 %
Test CRC 3195C59A
Copy CRC 3195C59A
Copy OK
No errors occurred

AccurateRip summary

Track 1 accurately ripped (confidence 1) [BA97FA64]
Track 2 accurately ripped (confidence 1) [0620427B]
Track 3 accurately ripped (confidence 1) [C3A0E11D]
Track 4 accurately ripped (confidence 1) [2F60A580]
Track 5 accurately ripped (confidence 1) [BD7508BC]
Track 6 accurately ripped (confidence 1) [D1EFDD1A]
Track 7 accurately ripped (confidence 1) [789EDBD1]
Track 8 accurately ripped (confidence 1) [80A05F3B]
Track 9 accurately ripped (confidence 1) [6E5880AB]
Track 10 accurately ripped (confidence 1) [A24DF0C7]
Track 11 accurately ripped (confidence 1) [892B7004]
Track 12 accurately ripped (confidence 1) [3557B7A4]
Track 13 accurately ripped (confidence 1) [B280145A]
Track 14 accurately ripped (confidence 1) [AB4606D2]
Track 15 accurately ripped (confidence 1) [C010B9BB]
Track 16 accurately ripped (confidence 1) [765348D7]

16 track(s) accurately ripped

Some tracks could not be verified as accurate
End of status report
Download
If links are broken please send me PM



Alternative download links

Uploaded

Related MP3 FLAC to VA - Buddha Sounds Vol.2 - The Arabic Dream (2005) flac
Feedback
All rights reserved.
WEBBG.com © 2000-2018