Hey Hey My My - Hey Hey My My (2007)
MP3 FLAC WMA APE HD

Hey Hey My My - Hey Hey My My (2007)

Artist: Hey Hey My My
Title Of Album: Hey Hey My My
Year Of Release: 2007
Label: Sober & Gentle
Genre: Indie, Folk
Quality: lossless
Bitrate: FLAC (tracks, cue, log)
Total Time: 00:47:26
Total Size: 304 MB (3% recov.)
WebSite:
Tracklist
1. Merryland (03:26)
2. I Need Some Time (02:47)
3. Easy (03:53)
4. Your Eyes When We Kiss (03:52)
5. Belle & Julian (03:00)
6. Don'T Sell Me Now (02:39)
7. Poison (03:17)
8. In The Lake (04:57)
9. Morricone (03:02)
10. Want It More (03:22)
11. Too Much Space (03:34)
12. Picking (02:48)
13. Celia (03:37)
14. A True Story (03:12)
Total time 00:47:26
EAC extraction logfile from 31. March 2009, 19:04 for CD
Hey Hey My My / Hey Hey My My
Used drive : Optiarc DVD RW AD-7561A Adapter: 0 ID: 0
Read mode : Secure with NO C2, accurate stream, disable cache
Read offset correction : 6
Overread into Lead-In and Lead-Out : No
Used output format : C:UsersJonDocumentsFLAC & LAMEFLACflac installedFLACflac.exe (User Defined Encoder)
128 kBit/s
Additional command line options : -V -8 -T "artist=%a" -T "title=%t" -T "album=%g" -T "date=%y" -T "tracknumber=%n" -T "genre=%m" %s
Other options :
Fill up missing offset samples with silence : Yes
Delete leading and trailing silent blocks : No
Native Win32 interface for Win NT & 2000
Track 1
Filename C:UsersJonDocumentsA Utorrent UploadsHey Hey My My - Hey Hey My My (FLAC)1 - Merryland.wav
Pre-gap length 0:00:02.00
Peak level 100.0 %
Track quality 100.0 %
Test CRC 255ED761
Copy CRC 255ED761
Copy OK
Track 2
Filename C:UsersJonDocumentsA Utorrent UploadsHey Hey My My - Hey Hey My My (FLAC)2 - I Need Some Time.wav
Pre-gap length 0:00:00.68
Peak level 100.0 %
Track quality 99.9 %
Test CRC F6D97FE3
Copy CRC F6D97FE3
Copy OK
Track 3
Filename C:UsersJonDocumentsA Utorrent UploadsHey Hey My My - Hey Hey My My (FLAC)3 - Easy.wav
Pre-gap length 0:00:00.29
Peak level 100.0 %
Track quality 100.0 %
Test CRC 8828E980
Copy CRC 8828E980
Copy OK
Track 4
Filename C:UsersJonDocumentsA Utorrent UploadsHey Hey My My - Hey Hey My My (FLAC)4 - Your Eyes When We Kiss.wav
Pre-gap length 0:00:00.53
Peak level 100.0 %
Track quality 100.0 %
Test CRC 97F9B1CA
Copy CRC 97F9B1CA
Copy OK
Track 5
Filename C:UsersJonDocumentsA Utorrent UploadsHey Hey My My - Hey Hey My My (FLAC)5 - Belle & Julian.wav
Pre-gap length 0:00:01.93
Peak level 100.0 %
Track quality 100.0 %
Test CRC 88C3409A
Copy CRC 88C3409A
Copy OK
Track 6
Filename C:UsersJonDocumentsA Utorrent UploadsHey Hey My My - Hey Hey My My (FLAC)6 - Don'T Sell Me Now.wav
Pre-gap length 0:00:01.13
Peak level 100.0 %
Track quality 100.0 %
Test CRC 130EC010
Copy CRC 130EC010
Copy OK
Track 7
Filename C:UsersJonDocumentsA Utorrent UploadsHey Hey My My - Hey Hey My My (FLAC)7 - Poison.wav
Pre-gap length 0:00:01.41
Peak level 100.0 %
Track quality 100.0 %
Test CRC E4E3FCAA
Copy CRC E4E3FCAA
Copy OK
Track 8
Filename C:UsersJonDocumentsA Utorrent UploadsHey Hey My My - Hey Hey My My (FLAC)8 - In The Lake.wav
Pre-gap length 0:00:01.45
Peak level 100.0 %
Track quality 100.0 %
Test CRC 49FF65C3
Copy CRC 49FF65C3
Copy OK
Track 9
Filename C:UsersJonDocumentsA Utorrent UploadsHey Hey My My - Hey Hey My My (FLAC)9 - Morricone.wav
Pre-gap length 0:00:01.29
Peak level 100.0 %
Track quality 100.0 %
Test CRC A8B73012
Copy CRC A8B73012
Copy OK
Track 10
Filename C:UsersJonDocumentsA Utorrent UploadsHey Hey My My - Hey Hey My My (FLAC)10 - Want It More.wav
Peak level 100.0 %
Track quality 99.9 %
Test CRC AB4628B7
Copy CRC AB4628B7
Copy OK
Track 11
Filename C:UsersJonDocumentsA Utorrent UploadsHey Hey My My - Hey Hey My My (FLAC)11 - Too Much Space.wav
Pre-gap length 0:00:11.90
Peak level 100.0 %
Track quality 100.0 %
Test CRC 94BBAB65
Copy CRC 94BBAB65
Copy OK
Track 12
Filename C:UsersJonDocumentsA Utorrent UploadsHey Hey My My - Hey Hey My My (FLAC)12 - Picking.wav
Pre-gap length 0:00:00.81
Peak level 100.0 %
Track quality 100.0 %
Test CRC 7DDC3087
Copy CRC 7DDC3087
Copy OK
Track 13
Filename C:UsersJonDocumentsA Utorrent UploadsHey Hey My My - Hey Hey My My (FLAC)13 - Celia.wav
Pre-gap length 0:00:00.60
Peak level 100.0 %
Track quality 100.0 %
Test CRC 65F50140
Copy CRC 65F50140
Copy OK
Track 14
Filename C:UsersJonDocumentsA Utorrent UploadsHey Hey My My - Hey Hey My My (FLAC)14 - A True Story.wav
Pre-gap length 0:00:01.50
Peak level 100.0 %
Track quality 100.0 %
Test CRC 907E0F25
Copy CRC 907E0F25
Copy OK
No errors occured
End of status report
| |
Pass: home
| |



Alternative download links

Download part 1 Download part 2 Download part 3 Mirror part 1 Mirror part 2 Mirror part 3

Related MP3 FLAC to Hey Hey My My - Hey Hey My My (2007)
Feedback
All rights reserved.
WEBBG.com © 2000-2018