The Funky Lowlives - Somewhere Else Is Here
MP3 FLAC WMA APE HD

The Funky Lowlives - Somewhere Else Is Here

Artist: The Funky Lowlives
Title Of Album: Somewhere Else Is Here
Year Of Release: May 31, 2005
Label: Outer Recordings
Genre: lounge, downtempo, Nu jazz
Quality: Flac (.cue+log)/mp3
Bitrate: Lossless/320 kbps
Total Time: 46:59 min
Total Size: 286 mb/ 110 mb (+5% recovery)
WebSite:
Track listing:
1. Sail Into The Sun
2. Time To Let You Go
3. Superlove
4. For Her Eyes
5. Till I Left The Music
6. You Have To Come With Me
7. Float Through Stars
8. Time Traveller Man
9. Another Place
10. Here Is Somewhere Else
Exact Audio Copy V0.99 prebeta 4 from 23. January 2008
EAC extraction logfile from 15. March 2009, 12:36
The Funky Lowlives / Somewhere Else Is Here
Used drive : _NEC DVD_RW ND-4570A Adapter: 1 ID: 1
Read mode : Secure
Utilize accurate stream : Yes
Defeat audio cache : Yes
Make use of C2 pointers : No
Read offset correction : 48
Overread into Lead-In and Lead-Out : No
Fill up missing offset samples with silence : Yes
Delete leading and trailing silent blocks : No
Null samples used in CRC calculations : Yes
Used interface : Installed external ASPI interface
Used output format : User Defined Encoder
Selected bitrate : 192 kBit/s
Quality : Low
Add ID3 tag : No
Command line compressor : C:Program FilesE A C AudioFlacflac.exe
Additional command line options : -V -8 -T "artist=%a" -T "title=%t" -T "album=%g" -T "date=%y" -T "tracknumber=%n" -T "genre=%m" %s
TOC of the extracted CD
Track | Start | Length | Start sector | End sector
---------------------------------------------------------
1 | 0:00.00 | 5:04.02 | 0 | 22801
2 | 5:04.02 | 4:51.51 | 22802 | 44677
3 | 9:55.53 | 4:45.70 | 44678 | 66122
4 | 14:41.48 | 4:08.21 | 66123 | 84743
5 | 18:49.69 | 5:40.72 | 84744 | 110315
6 | 24:30.66 | 4:55.70 | 110316 | 132510
7 | 29:26.61 | 4:12.21 | 132511 | 151431
8 | 33:39.07 | 3:53.74 | 151432 | 168980
9 | 37:33.06 | 4:29.35 | 168981 | 189190
10 | 42:02.41 | 5:29.09 | 189191 | 213874
Range status and errors
Selected range
Filename G:The Funky Lowlives - Somewhere Else Is HereThe Funky Lowlives - Somewhere Else Is Here.wav
Peak level 98.9 %
Range quality 100.0 %
Test CRC 123AF052
Copy CRC 123AF052
Copy OK
No errors occurred
End of status report
FLAC
Hotfile.com:

Fileserve.com:
MP3
Hotfile.com:

Fileserve.com:




Alternative download links

part1 part2 part3 part4 part1 part2 part3 part4 part1 part2 part1 part2

Related MP3 FLAC to The Funky Lowlives - Somewhere Else Is Here
Feedback
All rights reserved.
WEBBG.com © 2000-2018