Rush - Power Windows (1985)
MP3 FLAC WMA APE HD

Rush - Power Windows (1985)

Artist: Rush
Title Of Album: Power Windows
Year Of Release: 1985
Label: Polygram/Mercury (U.S.A.), 826 098-2
Genre: Progressive Rock, Synth rock
Quality: lossless
Bitrate: FLAC tracks + cue + log + scans
Total Time: 00:44:41
Total Size: 305 MB (+5%)
Power Windows is the 11th studio album by Canadian rock band Rush, released in 1985. Power Windows introduced more keyboard synthesizers into the band's sound.The lyrics are focused primarily on various manifestations of power. For example, the song "Manhattan Project" explores the origins and consequences of the U.S. military's development of the atomic bomb, and "Territories" comments on nationalism around the world. This is Rush at perhaps their best, both musically and lyrically.
Tracklist
1. The Big Money [05:37]
2. Grand Designs [05:06]
3. Manhattan Project [05:08]
4. Marathon [06:10]
5. Territories [06:20]
6. Middletown Dreams [05:15]
7. Emotion Detector [05:11]
8. Mystic Rhythms [05:54]
Total time 00:44:41
Exact Audio Copy V0.99 prebeta 4 from 23. January 2008
EAC extraction logfile from 19. August 2010, 17:15
Rush / Power Windows
Used drive : BENQ CDRW 5232X Adapter: 1 ID: 0
Read mode : Secure
Utilize accurate stream : Yes
Defeat audio cache : Yes
Make use of C2 pointers : No
Read offset correction : 738
Overread into Lead-In and Lead-Out : No
Fill up missing offset samples with silence : Yes
Delete leading and trailing silent blocks : No
Null samples used in CRC calculations : Yes
Used interface : Installed external ASPI interface
Gap handling : Appended to previous track
Used output format : Internal WAV Routines
Sample format : 44.100 Hz; 16 Bit; Stereo
TOC of the extracted CD
Track | Start | Length | Start sector | End sector
---------------------------------------------------------
1 | 0:00.32 | 5:37.08 | 32 | 25314
2 | 5:37.40 | 5:06.32 | 25315 | 48296
3 | 10:43.72 | 5:07.45 | 48297 | 71366
4 | 15:51.42 | 6:09.48 | 71367 | 99089
5 | 22:01.15 | 6:20.35 | 99090 | 127624
6 | 28:21.50 | 5:15.35 | 127625 | 151284
7 | 33:37.10 | 5:11.10 | 151285 | 174619
8 | 38:48.20 | 5:54.32 | 174620 | 201201
Track 1
Filename C:1 - The Big Money.wav
Pre-gap length 0:00:02.42
Peak level 95.5 %
Track quality 100.0 %
Test CRC 507305D6
Copy CRC 507305D6
Accurately ripped (confidence 31) [1319E096]
Copy OK
Track 2
Filename C:2 - Grand Designs.wav
Pre-gap length 0:00:01.00
Peak level 81.7 %
Track quality 100.0 %
Test CRC D20B6FAB
Copy CRC D20B6FAB
Accurately ripped (confidence 30) [B2DEAC65]
Copy OK
Track 3
Filename C:3 - Manhattan Project.wav
Peak level 89.9 %
Track quality 100.0 %
Test CRC 04F7142C
Copy CRC 04F7142C
Accurately ripped (confidence 30) [43735082]
Copy OK
Track 4
Filename C:4 - Marathon.wav
Pre-gap length 0:00:02.76
Peak level 72.1 %
Track quality 100.0 %
Test CRC 5B4E8EBD
Copy CRC 5B4E8EBD
Accurately ripped (confidence 29) [A6188692]
Copy OK
Track 5
Filename C:5 - Territories.wav
Pre-gap length 0:00:00.26
Peak level 75.2 %
Track quality 100.0 %
Test CRC 4D799D59
Copy CRC 4D799D59
Accurately ripped (confidence 30) [628B3890]
Copy OK
Track 6
Filename C:6 - Middletown Dreams.wav
Pre-gap length 0:00:01.10
Peak level 76.6 %
Track quality 99.9 %
Test CRC E949D2FF
Copy CRC E949D2FF
Accurately ripped (confidence 29) [176850E6]
Copy OK
Track 7
Filename C:7 - Emotion Detector.wav
Peak level 89.2 %
Track quality 99.9 %
Test CRC 3FFD3AB7
Copy CRC 3FFD3AB7
Accurately ripped (confidence 29) [8DC87998]
Copy OK
Track 8
Filename C:8 - Mystic Rhythms.wav
Pre-gap length 0:00:00.86
Peak level 85.5 %
Track quality 100.0 %
Test CRC 990759E6
Copy CRC 990759E6
Accurately ripped (confidence 29) [BAE2184D]
Copy OK
All tracks accurately ripped
No errors occurred
End of status report
Download:
(filesonic.com)
| |
(hotfile.com)
| |
(fileserve.com)
| |
(unibytes.com)
| |





Alternative download links

Download part 1 Download part 2 Download part 3 Download part 1 Download part 2 Download part 3 Download part 1 Download part 2 Download part 3

Related MP3 FLAC to Rush - Power Windows (1985)
Feedback
All rights reserved.
WEBBG.com © 2000-2018