Webster Young - For Lady (1957, remaster 1992)
MP3 FLAC WMA APE HD

Webster Young - For Lady (1957, remaster 1992)

Artist: Webster Young
Title Of Album: For Lady
Year Of Release: 1957, remaster 1992
Label: Prestige OJCCD-1716-2
Genre: Classic Jazz, Cool Jazz
Quality: lossless
Bitrate: FLAC tracks+cue+log+scans
Total Time: 00:42:34
Total Size: 227 MB (+3%)
Trumpeter Webster Young pays tribute to Billie Holiday. Young is nicely matched here with tenor saxophonist Paul Quinichette, with the two of them using a pleasantly blowsy approach to weave loose, discursive counterpoint around each other. Guitarist Joe Puma distinguishes the set with thoughtful, understated playing that calls to mind Kenny Burrell's own Prestige dates from this period. Pianist Mal Waldron, drummer Ed Thigpen, and bassist Earl May infuse the performances with a cohesive, relaxed swing. They give each other lots of space, and Waldron makes astute choices in his chord selection, phrasing, and comping strategies. The tracks comprise five pieces associated with Holiday and one Young original, written in homage to Lady Day.
Tracklist
1. The Lady [07:03]
2. God Bless The Child [07:09]
3. Moanin' Low [07:48]
4. Good Morning Heartache [08:59]
5. Don't Explain [07:16]
6. Strange Fruit [04:19]
Total time 00:42:34
EAC extraction logfile from 17. January 2008, 21:15 for CD
Webster Young / For Lady
Used drive : HL-DT-STCDRW/DVD GCC4482 Adapter: 1 ID: 0
Read mode : Secure with NO C2, accurate stream, disable cache
Read offset correction : 6
Overread into Lead-In and Lead-Out : No
Used output format : C:EacCodecsflac.exe (User Defined Encoder)
320 kBit/s
Additional command line options : -8 -V -T "artist=%a" -T "title=%t" -T "album=%g" -T "date=%y" -T "tracknumber=%n" -T "genre=%m" -T "comment=EAC Flac 1.1.2 -8" %s
Other options :
Fill up missing offset samples with silence : Yes
Delete leading and trailing silent blocks : No
Installed external ASPI interface
Track 1
Filename C:Documents and Settingsyoung1 - The Lady.wav
Pre-gap length 0:00:02.00
Peak level 99.6 %
Track quality 100.0 %
Test CRC 47E1D1E6
Copy CRC 47E1D1E6
Copy OK
Track 2
Filename C:Documents and Settingsyoung2 - God Bless The Child.wav
Pre-gap length 0:00:03.37
Peak level 99.7 %
Track quality 100.0 %
Test CRC 53BD6506
Copy CRC 53BD6506
Copy OK
Track 3
Filename C:Documents and Settingsyoung3 - Moanin' Low.wav
Pre-gap length 0:00:03.26
Peak level 100.0 %
Track quality 99.9 %
Test CRC 3E876176
Copy CRC 3E876176
Copy OK
Track 4
Filename C:Documents and Settingsyoung4 - Good Morning Heartache.wav
Pre-gap length 0:00:02.97
Peak level 88.1 %
Track quality 100.0 %
Test CRC 4635CA7F
Copy CRC 4635CA7F
Copy OK
Track 5
Filename C:Documents and Settingsyoung5 - Don't Explain.wav
Pre-gap length 0:00:03.70
Peak level 88.8 %
Track quality 99.9 %
Test CRC 28C53E9D
Copy CRC 28C53E9D
Copy OK
Track 6
Filename C:Documents and Settingsyoung6 - Strange Fruit.wav
Pre-gap length 0:00:04.00
Peak level 84.9 %
Track quality 100.0 %
Test CRC 9D4D2235
Copy CRC 9D4D2235
Copy OK
No errors occured
End of status report
Recording information: Hackensack, NJ (06/14/1957); New Jersey (06/14/1957).
Personnel: Webster Young (trumpet, cornet); Joe Puma (guitar); Paul Quinichette (tenor saxophone); Mal Waldron (piano); Ed Thigpen (drums).
Download:
(fileserve.com)
|
(hotfile.com)
|
(letitbit.net)
|





Alternative download links

Download part 1 Download part 2 Download part 1 Download part 2 Download part 1 Download part 2

Related MP3 FLAC to Webster Young - For Lady (1957, remaster 1992)
Feedback
All rights reserved.
WEBBG.com © 2000-2018