VA - Irma Jazz Funk N Bossa (1999)
MP3 FLAC WMA APE HD

VA - Irma Jazz Funk N Bossa (1999)

Artist: VA
Title Of Album: Irma Jazz Funk 'N' Bossa
Year Of Release: 1999
Label: Irma
Genre: Nu Jazz, Bossa Nova
Quality: Flac(Image+Cue+Log)/MP3
Bitrate: Lossless/320kbps
Total Time: 63:45min
Total Size: 401Mb/150Mb
Tracklist:
1 . Man Sueto - Sentimental Song 04:12
2 . Black & Brown - Never Be There 04:40
3 . Bossa Nostra - The Message From A Soul Sister 05:29
4 . Gazzara - Our Man In Rio 04:36
5 . Black & Brown - Afro T (Jazzy Stuff) 04:20
6 . Time Is Moving - G-Live Tropical Fish 04:04
7 . Bossa Nostra - Kharmation 04:41
8 . Jestofunk - Fly Love Song 05:27
9 . Bota Pre Quebar - D.J. Rodriquez 04:35
10 . Timeless - Gazzara 05:26
11 . Black & Brown - Manic Samba 02:06
12 . Man Sueto - Babe, This Love I Have 04:04
13 . Faces - Bossa Nostra 03:46
14 . Ltj X-Perience - Sombre Guitar 05:54
Exact Audio Copy V0.99 prebeta 3 from 28. July 2007
Отчёт EAC об извлечении, выполненном 26. июня 2011, 12:10
Various Artists / Irma Jazz Funk'n'bossa vol.1
Дисковод: Optiarc DVD RW AD-7560A Adapter: 0 ID: 0
Режим чтения : Достоверность
Использование точного потока : Да
Отключение кэша аудио : Нет
Использование указателей C2 : Нет
Коррекция смещения при чтении : 6
Способность читать области Lead-in и Lead-out : Нет
Заполнение пропущенных сэмплов тишиной : Да
Удаление блоков с тишиной в начале и конце : Нет
При вычислениях CRC использовались нулевые сэмплы : Да
Интерфейс : Встроенный Win32-интерфейс для Win NT/2000
Выходной формат : Пользовательский кодировщик
Выбранный битрейт : 768 kBit/s
Качество : Высокий
Добавление ID3-тэга : Нет
Утилита сжатия : C:Program Files (x86)Exact Audio CopyFLACFLAC.EXE
Дополнительные параметры : -6 -V -T "ARTIST=%a" -T "TITLE=%t" -T "ALBUM=%g" -T "DATE=%y" -T "TRACKNUMBER=%n" -T "GENRE=%m" -T "COMMENT=%e" %s -o %d
TOC извлечённого CD
Трек | Старт | Длительность | Начальный сектор | Конечный сектор
---------------------------------------------------------------------
1 | 0:00.00 | 4:12.65 | 0 | 18964
2 | 4:12.65 | 4:40.47 | 18965 | 40011
3 | 8:53.37 | 5:30.35 | 40012 | 64796
4 | 14:23.72 | 4:38.40 | 64797 | 85686
5 | 19:02.37 | 4:22.45 | 85687 | 105381
6 | 23:25.07 | 4:06.40 | 105382 | 123871
7 | 27:31.47 | 4:41.45 | 123872 | 144991
8 | 32:13.17 | 5:27.58 | 144992 | 169574
9 | 37:41.00 | 4:40.05 | 169575 | 190579
10 | 42:21.05 | 5:27.47 | 190580 | 215151
11 | 47:48.52 | 2:07.18 | 215152 | 224694
12 | 49:55.70 | 4:07.47 | 224695 | 243266
13 | 54:03.42 | 3:46.70 | 243267 | 260286
14 | 57:50.37 | 5:54.50 | 260287 | 286886
Характеристики диапазона извлечения и сообщения об ошибках
Выбранный диапазон
Имя файла C:UsersВалюшкаDesktopVA - Irma Jazz Funk 'N' Bossa Various Artists - Irma Jazz Funk'n'bossa vol.1.wav
Пиковый уровень 100.0 %
Качество диапазона 99.9 %
CRC копии FBB3063E
Копирование... OK
Ошибок не произошло

AccurateRip: сводка

Трек 1 точность не определена (достоверность 1) [AAF6471E], AccurateRip вернул [6FF52FEC]
Трек 2 точность не определена (достоверность 1) [1917ECF8], AccurateRip вернул [5931B657]
Трек 3 точность не определена (достоверность 1) [3975A814], AccurateRip вернул [2683F35B]
Трек 4 точность не определена (достоверность 1) [3D4924E5], AccurateRip вернул [76277543]
Трек 5 точность не определена (достоверность 1) [36F5D07E], AccurateRip вернул [C88B0E9D]
Трек 6 точность не определена (достоверность 1) [598C5592], AccurateRip вернул [8B8A4D22]
Трек 7 точность не определена (достоверность 1) [9DB13788], AccurateRip вернул [22926F6C]
Трек 8 точность не определена (достоверность 1) [075F2B94], AccurateRip вернул [F8DFEF46]
Трек 9 точность не определена (достоверность 1) [4D1CD58D], AccurateRip вернул [DEEE9115]
Трек 10 точность не определена (достоверность 1) [F4045261], AccurateRip вернул [C2EB7C2A]
Трек 11 точность не определена (достоверность 1) [7DECF8D7], AccurateRip вернул [7F68322C]
Трек 12 точность не определена (достоверность 1) [848EC4E6], AccurateRip вернул [4C60D354]
Трек 13 точность не определена (достоверность 1) [ECE114CC], AccurateRip вернул [57665B8B]
Трек 14 точность не определена (достоверность 1) [4EAD3EF6], AccurateRip вернул [0000FDA5]

Ни один трек не прошёл проверки на точность
В вашей базе может быть иной вариант штамповки диска
Конец отчёта
MY CD COLLECTION
Download




Alternative download links

Uploaded

Related MP3 FLAC to VA - Irma Jazz Funk N Bossa (1999)
Feedback
All rights reserved.
WEBBG.com © 2000-2018