Edward Grieg - Peer Gynt Piano Concerto in A minor (1994)
MP3 FLAC WMA APE HD

Edward Grieg - Peer Gynt Piano Concerto in A minor (1994)

Artist: Edward Grieg
Title Of Album: Peer Gynt & Piano Concerto in A minor
Year Of Release: 1994
Label: Elap Music, 39077CD
Genre: Classical
Quality: Lossless
Bitrate: FLAC image + cue + log
Total Time: 01:02:39
Total Size: 236 MB (3% rec.)
London Festival Orchestra (conducted by Sven Bengston) performs the best known works of the famous Norwegian composer – Piano Concerto in A minor, and Peer Gynt (which includes Morning Mood and In the Hall of the Mountain King).
Tracklist
1. Peer Gynt Suite No. 1 Op. 46 - Morgenstimmung [03:55]
2. Peer Gynt Suite No. 1 Op. 46 - Ases Tod [04:37]
3. Peer Gynt Suite No. 1 Op. 46 - Anitras Tanz [03:33]
4. Peer Gynt Suite No. 1 Op. 46 - In Der Halle Des Bergkonigs [02:22]
5. Concerto in Aminor - Allegro Molto Moderato [13:36]
6. Concerto in Aminor - Adagio [07:07]
7. Concerto in Aminor - Allegro Moderato E Marcanto [10:50]
8. Peer Gynt Suite No2 - Der Brautraub [04:11]
9. Peer Gynt Suite No2 - Arabischer Tanz [04:37]
10. Peer Gynt Suite No2 - Peer Gynts Heimkehr [02:32]
11. Peer Gynt Suite No2 - Solveigs Lied [05:19]
Total time 01:02:39
Performed by London Festival Orchestra.
Conducted by Sven Bengston.
Soloist: Bjorn Lundgren, piano.
Exact Audio Copy V0.99 prebeta 4 from 23. January 2008
Отчёт EAC об извлечении, выполненном 17. июня 2009, 11:22
Edward Grieg / Peer Gynt - Piano Concerto in A minor
Дисковод: Optiarc DVD RW AD-7173S Adapter: 5 ID: 1
Режим чтения : Достоверность
Использование точного потока : Да
Отключение кэша аудио : Да
Использование указателей C2 : Нет
Коррекция смещения при чтении : 48
Способность читать области Lead-in и Lead-out : Нет
Заполнение пропущенных сэмплов тишиной : Да
Удаление блоков с тишиной в начале и конце : Нет
При вычислениях CRC использовались нулевые сэмплы : Да
Интерфейс : Установленный внешний ASPI-интерфейс
Выходной формат : Пользовательский кодировщик
Выбранный битрейт : 768 kBit/s
Качество : Высокий
Добавление ID3-тэга : Нет
Утилита сжатия : C:Program FilesExact Audio CopyFLACFLAC.EXE
Дополнительные параметры : -8 -V -T "ARTIST=%a" -T "TITLE=%t" -T "ALBUM=%g" -T "DATE=%y" -T "TRACKNUMBER=%n" -T "GENRE=%m" -T "COMMENT=EAC FLAC -8" %s
TOC извлечённого CD
Трек | Старт | Длительность | Начальный сектор | Конечный сектор
---------------------------------------------------------------------
1 | 0:00.00 | 3:55.68 | 0 | 17692
2 | 3:55.68 | 4:37.17 | 17693 | 38484
3 | 8:33.10 | 3:33.68 | 38485 | 54527
4 | 12:07.03 | 2:22.72 | 54528 | 65249
5 | 14:30.00 | 13:36.05 | 65250 | 126454
6 | 28:06.05 | 7:07.73 | 126455 | 158552
7 | 35:14.03 | 10:50.02 | 158553 | 207304
8 | 46:04.05 | 4:11.38 | 207305 | 226167
9 | 50:15.43 | 4:37.60 | 226168 | 247002
10 | 54:53.28 | 2:32.60 | 247003 | 258462
11 | 57:26.13 | 5:19.62 | 258463 | 282449
Характеристики диапазона извлечения и сообщения об ошибках
Выбранный диапазон
Имя файла d:Раздачи torrents.ruEdward Grieg - Peer Gynt - Piano Concerto in A minorEdward Grieg - Peer Gynt - Piano Concerto in A minor.wav
Пиковый уровень 87.4 %
Качество диапазона 100.0 %
CRC копии 0F0C034C
Копирование... OK
Ошибок не произошло
Конец отчёта
Download:
(filesonic.com)
|
(hotfile.com)
|
(uploaded.to)
|





Alternative download links

Download part 1 Download part 2 Download part 1 Download part 2

Related MP3 FLAC to Edward Grieg - Peer Gynt Piano Concerto in A minor (1994)
Feedback
All rights reserved.
WEBBG.com © 2000-2018