Funki Porcini - On (2010) FLAC320
MP3 FLAC WMA APE HD

Funki Porcini - On (2010) FLAC320

Artist: Funki Porcini
Title Of Album: On
Year Of Release: 2010
Label: Ninja Tune
Genre: Electronic, Future Jazz, Downtempo, Trip-Hop, Nu Jazz
Quality: FLAC (Tracks, Cue, Log)/mp3
Bitrate: lossless/320kbps
Total Time: 43:47 min
Total Size: 266 mb/105mb (+5% rec.)
Tracklist
1 Moog River [3:15]
2 This Ain't The Way To Live [4:52]
3 Belisha Beacon [3:50]
4 Undermud [4:58]
5 On An Inconsequential Afternoon [2:26]
6 The 3rd Man [5:54]
7 Bright Little Things [3:18]
8 Robert Crumb's Natural Gait [2:55]
9 The Magic Hands Of Fernando Del Rey [5:51]
10 Waking Up [6:23]
X Lossless Decoder version 20100511 (119.2)
XLD extraction logfile from 2010-05-12 15:42:02 +0100
Funki Porcini / On
Used drive : MATSHITA DVD-R UJ-857D (revision KCVB)
Use cdparanoia mode : YES (CDParanoia III 10.2 engine)
Disable audio cache : OK for the drive with cache less than 2750KB
Make use of C2 pointers : NO
Read offset correction : 102
Max retry count : 100
TOC of the extracted CD
Track | Start | Length | Start sector | End sector
---------------------------------------------------------
1 | 00:00:00 | 03:15:58 | 0 | 14682
2 | 03:15:58 | 04:52:68 | 14683 | 36650
3 | 08:08:51 | 03:50:42 | 36651 | 53942
4 | 11:59:18 | 04:58:12 | 53943 | 76304
5 | 16:57:30 | 02:26:66 | 76305 | 87320
6 | 19:24:21 | 05:54:08 | 87321 | 113878
7 | 25:18:29 | 03:18:21 | 113879 | 128749
8 | 28:36:50 | 02:55:60 | 128750 | 141934
9 | 31:32:35 | 05:51:19 | 141935 | 168278
10 | 37:23:54 | 06:23:17 | 168279 | 197020
Track 01
Filename : /Volumes/firefox/What.CD/uploads/Funki Porcini - 2010 - On/01 - Moog River.flac
Pre-gap length : 00:02:00
CRC32 hash (test run) : 0217C743
CRC32 hash : 0217C743
CRC32 hash (skip zero) : AC4408F6
AccurateRip signature : EC3CC5C1
->Track not present in AccurateRip database.
Statistics
Read error : 0
Skipped (treated as error) : 0
Edge jitter error (maybe fixed) : 0
Atom jitter error (maybe fixed) : 0
Drift error (maybe fixed) : 0
Dropped bytes error (maybe fixed) : 0
Duplicated bytes error (maybe fixed) : 0
Inconsistency in error sectors : 0
Track 02
Filename : /Volumes/firefox/What.CD/uploads/Funki Porcini - 2010 - On/02 - This aint the way to live.flac
Pre-gap length : 00:02:00
CRC32 hash (test run) : 44BF943C
CRC32 hash : 44BF943C
CRC32 hash (skip zero) : E065D3D0
AccurateRip signature : 6D3C4AB7
->Track not present in AccurateRip database.
Statistics
Read error : 0
Skipped (treated as error) : 0
Edge jitter error (maybe fixed) : 0
Atom jitter error (maybe fixed) : 0
Drift error (maybe fixed) : 0
Dropped bytes error (maybe fixed) : 0
Duplicated bytes error (maybe fixed) : 0
Inconsistency in error sectors : 0
Track 03
Filename : /Volumes/firefox/What.CD/uploads/Funki Porcini - 2010 - On/03 - Belisha Beacon.flac
Pre-gap length : 00:02:00
CRC32 hash (test run) : BB4956C9
CRC32 hash : BB4956C9
CRC32 hash (skip zero) : F979B358
AccurateRip signature : 08608FBF
->Track not present in AccurateRip database.
Statistics
Read error : 0
Skipped (treated as error) : 0
Edge jitter error (maybe fixed) : 0
Atom jitter error (maybe fixed) : 0
Drift error (maybe fixed) : 0
Dropped bytes error (maybe fixed) : 0
Duplicated bytes error (maybe fixed) : 0
Inconsistency in error sectors : 0
Track 04
Filename : /Volumes/firefox/What.CD/uploads/Funki Porcini - 2010 - On/04 - Undermud.flac
Pre-gap length : 00:01:00
CRC32 hash (test run) : 5AE8308B
CRC32 hash : 5AE8308B
CRC32 hash (skip zero) : 3F5A9C27
AccurateRip signature : E7B1EF27
->Track not present in AccurateRip database.
Statistics
Read error : 0
Skipped (treated as error) : 0
Edge jitter error (maybe fixed) : 0
Atom jitter error (maybe fixed) : 0
Drift error (maybe fixed) : 0
Dropped bytes error (maybe fixed) : 0
Duplicated bytes error (maybe fixed) : 0
Inconsistency in error sectors : 0
Track 05
Filename : /Volumes/firefox/What.CD/uploads/Funki Porcini - 2010 - On/05 - On an Inconsequential Afternoon.flac
Pre-gap length : 00:01:00
CRC32 hash (test run) : D7DBE8CB
CRC32 hash : D7DBE8CB
CRC32 hash (skip zero) : 7D1EE9A6
AccurateRip signature : 3AF197F6
->Track not present in AccurateRip database.
Statistics
Read error : 0
Skipped (treated as error) : 0
Edge jitter error (maybe fixed) : 0
Atom jitter error (maybe fixed) : 0
Drift error (maybe fixed) : 0
Dropped bytes error (maybe fixed) : 0
Duplicated bytes error (maybe fixed) : 0
Inconsistency in error sectors : 0
Track 06
Filename : /Volumes/firefox/What.CD/uploads/Funki Porcini - 2010 - On/06 - The 3rd Man.flac
Pre-gap length : 00:03:00
CRC32 hash (test run) : 5BD3D284
CRC32 hash : 5BD3D284
CRC32 hash (skip zero) : 2EE84D56
AccurateRip signature : AB4F7B3C
->Track not present in AccurateRip database.
Statistics
Read error : 0
Skipped (treated as error) : 0
Edge jitter error (maybe fixed) : 0
Atom jitter error (maybe fixed) : 0
Drift error (maybe fixed) : 0
Dropped bytes error (maybe fixed) : 0
Duplicated bytes error (maybe fixed) : 0
Inconsistency in error sectors : 0
Track 07
Filename : /Volumes/firefox/What.CD/uploads/Funki Porcini - 2010 - On/07 - Bright Little Things..flac
Pre-gap length : 00:01:00
CRC32 hash (test run) : 0486DA16
CRC32 hash : 0486DA16
CRC32 hash (skip zero) : F86C396F
AccurateRip signature : F042E2A2
->Track not present in AccurateRip database.
Statistics
Read error : 0
Skipped (treated as error) : 0
Edge jitter error (maybe fixed) : 0
Atom jitter error (maybe fixed) : 0
Drift error (maybe fixed) : 0
Dropped bytes error (maybe fixed) : 0
Duplicated bytes error (maybe fixed) : 0
Inconsistency in error sectors : 0
Track 08
Filename : /Volumes/firefox/What.CD/uploads/Funki Porcini - 2010 - On/08 - Robert Crumb's Natural Gait.flac
Pre-gap length : 00:01:00
CRC32 hash (test run) : 80499DCB
CRC32 hash : 80499DCB
CRC32 hash (skip zero) : 8DEF6718
AccurateRip signature : 253AAFDE
->Track not present in AccurateRip database.
Statistics
Read error : 0
Skipped (treated as error) : 0
Edge jitter error (maybe fixed) : 0
Atom jitter error (maybe fixed) : 0
Drift error (maybe fixed) : 0
Dropped bytes error (maybe fixed) : 0
Duplicated bytes error (maybe fixed) : 0
Inconsistency in error sectors : 0
Track 09
Filename : /Volumes/firefox/What.CD/uploads/Funki Porcini - 2010 - On/09 - The Magic Hands Of Fernando Del Rey.flac
Pre-gap length : 00:02:00
CRC32 hash (test run) : 3A2A8D63
CRC32 hash : 3A2A8D63
CRC32 hash (skip zero) : FD4EC0DC
AccurateRip signature : 2CD29EBD
->Track not present in AccurateRip database.
Statistics
Read error : 0
Skipped (treated as error) : 0
Edge jitter error (maybe fixed) : 0
Atom jitter error (maybe fixed) : 0
Drift error (maybe fixed) : 0
Dropped bytes error (maybe fixed) : 0
Duplicated bytes error (maybe fixed) : 0
Inconsistency in error sectors : 0
Track 10
Filename : /Volumes/firefox/What.CD/uploads/Funki Porcini - 2010 - On/10 - Waking Up.flac
Pre-gap length : 00:02:00
CRC32 hash (test run) : B6B3FA93
CRC32 hash : B6B3FA93
CRC32 hash (skip zero) : 26A7A4C3
AccurateRip signature : 69BD96C9
->Track not present in AccurateRip database.
Statistics
Read error : 0
Skipped (treated as error) : 0
Edge jitter error (maybe fixed) : 0
Atom jitter error (maybe fixed) : 0
Drift error (maybe fixed) : 0
Dropped bytes error (maybe fixed) : 0
Duplicated bytes error (maybe fixed) : 0
Inconsistency in error sectors : 0
No errors occurred
End of status report
AUDIOCHECKER v2.0 beta (build 457) - by Dester - [email protected]
~~~~~~~~~~~~~~~~~~~~~~~~~~~~~~~~~~
-=== DO NOT EDIT THIS FILE! ===-
Path: ...Funki Porcini - On
01 -=- 01. Moog River.flac -=- CDDA (100%)
02 -=- 02. This Ain't The Way To Live.flac -=- CDDA (100%)
03 -=- 03. Belisha Beacon.flac -=- CDDA (100%)
04 -=- 04. Undermud.flac -=- CDDA (100%)
05 -=- 05. On An Inconsequential Afternoon.flac -=- CDDA (100%)
06 -=- 06. The 3rd Man.flac -=- CDDA (100%)
07 -=- 07. Bright Little Things.flac -=- CDDA (100%)
08 -=- 08. Robert Crumb's Natural Gait.flac -=- CDDA (100%)
09 -=- 09. The Magic Hands Of Fernando Del Rey.flac -=- CDDA (100%)
10 -=- 10. Waking Up.flac -=- CDDA (100%)
Summary 100,00% CDDA
156176852
Download
EXTABIT
If links are broken please send me PM



Alternative download links

TURBOBIT EXTABIT.part1 EXTABIT.part2 EXTABIT_320

Related MP3 FLAC to Funki Porcini - On (2010) FLAC320
Feedback
All rights reserved.
WEBBG.com © 2000-2018