Capercaillie - Delirium (1991)
MP3 FLAC WMA APE HD

Capercaillie - Delirium (1991)

Artist: Capercaillie
Title Of Album: Delirium
Year Of Release: 1991
Label: Landy Star Music
Genre: Folk, Celtic
Quality: FLAC (tracks+.cue) + log
Bitrate: Lossless
Total Time: 48:49
Total Size: 289 Mb
Listening to it over and over-her voice is really great and their renditions of both their own songs and traditional jigs and reels are super. Anyone who loves Celtic music will enjoy this talented group, and especially this CD, one of their best, in my humble opinion.
Tracklist:
01 Rann Na Mona
02 Waiting For The Wheel To Turn
03 Aodann Srath Bhain
04 Cape Breton Song
05 You Will Rise Again
06 Kenny Macdonald's Jigs
07 Dean Saor An Spiorad
08 Coisich, A Ruin
09 Dr. Macphail's Reel
10 Heart Of The Highland
11 Breisleach
12 Islay Ranter's Reels
13 Servant To The Slave
Exact Audio Copy V1.0 beta 1 from 15. November 2010
EAC extraction logfile from 4. March 2011, 13:10
Capercaillie / Delirium
Used drive : TEAC CD-W548E Adapter: 0 ID: 1
Read mode : Secure
Utilize accurate stream : Yes
Defeat audio cache : Yes
Make use of C2 pointers : No
Read offset correction : 12
Overread into Lead-In and Lead-Out : No
Fill up missing offset samples with silence : Yes
Delete leading and trailing silent blocks : No
Null samples used in CRC calculations : Yes
Used interface : Native Win32 interface for Win NT & 2000
Gap handling : Appended to previous track
Used output format : User Defined Encoder
Selected bitrate : 1024 kBit/s
Quality : High
Add ID3 tag : No
Command line compressor : C:Program FilesExact Audio CopyFlacflac.exe
Additional command line options : -8 -V -T "ARTIST=%a" -T "TITLE=%t" -T "ALBUM=%g" -T "DATE=%y" -T "TRACKNUMBER=%n" -T "GENRE=%m" -T "COMMENT=EAC FLAC -8" %s
TOC of the extracted CD
Track | Start | Length | Start sector | End sector
---------------------------------------------------------
1 | 0:00.32 | 3:50.73 | 32 | 17354
2 | 3:51.30 | 4:36.50 | 17355 | 38104
3 | 8:28.05 | 4:04.67 | 38105 | 56471
4 | 12:32.72 | 3:02.68 | 56472 | 70189
5 | 15:35.65 | 3:31.40 | 70190 | 86054
6 | 19:07.30 | 3:58.72 | 86055 | 103976
7 | 23:06.27 | 4:24.38 | 103977 | 123814
8 | 27:30.65 | 3:13.07 | 123815 | 138296
9 | 30:43.72 | 2:50.43 | 138297 | 151089
10 | 33:34.40 | 3:47.37 | 151090 | 168151
11 | 37:22.02 | 2:41.08 | 168152 | 180234
12 | 40:03.10 | 3:04.10 | 180235 | 194044
13 | 43:07.20 | 5:42.12 | 194045 | 219706
Track 1
Filename D:CAPERCAILLIECapercaillie - Delirium1 01 Rann Na Mona.wav
Pre-gap length 0:00:02.32
Peak level 99.6 %
Extraction speed 2.5 X
Track quality 100.0 %
Copy CRC 9F16535F
Cannot be verified as accurate (confidence 7) [D1825B0D], AccurateRip returned [2A7D8711]
Copy OK
Track 2
Filename D:CAPERCAILLIECapercaillie - Delirium2 02 Waiting For The Wheel To Turn.wav
Peak level 92.9 %
Extraction speed 2.6 X
Track quality 100.0 %
Copy CRC 1CBA07F8
Cannot be verified as accurate (confidence 7) [FB4548D0], AccurateRip returned [3A4A9102]
Copy OK
Track 3
Filename D:CAPERCAILLIECapercaillie - Delirium3 03 Aodann Srath Bhain.wav
Peak level 82.8 %
Extraction speed 3.0 X
Track quality 100.0 %
Copy CRC 4985D74F
Cannot be verified as accurate (confidence 7) [2FB9FA38], AccurateRip returned [EE2FF595]
Copy OK
Track 4
Filename D:CAPERCAILLIECapercaillie - Delirium4 04 Cape Breton Song.wav
Peak level 96.4 %
Extraction speed 2.8 X
Track quality 100.0 %
Copy CRC 1B75DB18
Cannot be verified as accurate (confidence 7) [96CF61F6], AccurateRip returned [62DD89AC]
Copy OK
Track 5
Filename D:CAPERCAILLIECapercaillie - Delirium5 05 You Will Rise Again.wav
Peak level 82.5 %
Extraction speed 2.2 X
Track quality 99.9 %
Copy CRC E1B42E2D
Cannot be verified as accurate (confidence 7) [DA111122], AccurateRip returned [FD565D27]
Copy OK
Track 6
Filename D:CAPERCAILLIECapercaillie - Delirium6 06 Kenny Macdonald's Jigs.wav
Peak level 100.0 %
Extraction speed 3.3 X
Track quality 100.0 %
Copy CRC E50BCD35
Cannot be verified as accurate (confidence 7) [9FB4BCD0], AccurateRip returned [1316CB72]
Copy OK
Track 7
Filename D:CAPERCAILLIECapercaillie - Delirium7 07 Dean Saor An Spiorad.wav
Peak level 88.7 %
Extraction speed 3.4 X
Track quality 100.0 %
Copy CRC 73E9DF1C
Cannot be verified as accurate (confidence 7) [235362BA], AccurateRip returned [0E5E848D]
Copy OK
Track 8
Filename D:CAPERCAILLIECapercaillie - Delirium8 08 Coisich, A Ruin.wav
Peak level 100.0 %
Extraction speed 3.2 X
Track quality 100.0 %
Copy CRC 2CC15052
Cannot be verified as accurate (confidence 7) [EBF1348E], AccurateRip returned [5D7008F1]
Copy OK
Track 9
Filename D:CAPERCAILLIECapercaillie - Delirium9 09 Dr. Macphail's Reel.wav
Peak level 99.7 %
Extraction speed 3.9 X
Track quality 100.0 %
Copy CRC 6CAF9915
Cannot be verified as accurate (confidence 7) [3A23FC58], AccurateRip returned [567F21A2]
Copy OK
Track 10
Filename D:CAPERCAILLIECapercaillie - Delirium10 10 Heart Of The Highland.wav
Peak level 95.4 %
Extraction speed 3.3 X
Track quality 100.0 %
Copy CRC 4B2349CE
Cannot be verified as accurate (confidence 7) [55AA50AF], AccurateRip returned [8757680E]
Copy OK
Track 11
Filename D:CAPERCAILLIECapercaillie - Delirium11 11 Breisleach.wav
Peak level 72.9 %
Extraction speed 3.5 X
Track quality 100.0 %
Copy CRC A74AE5AF
Cannot be verified as accurate (confidence 7) [D4A7A1A6], AccurateRip returned [F9E22E4E]
Copy OK
Track 12
Filename D:CAPERCAILLIECapercaillie - Delirium12 12 Islay Ranter's Reels.wav
Peak level 93.1 %
Extraction speed 4.5 X
Track quality 100.0 %
Copy CRC A3A535BE
Cannot be verified as accurate (confidence 7) [CC411376], AccurateRip returned [3E8D36B2]
Copy OK
Track 13
Filename D:CAPERCAILLIECapercaillie - Delirium13 13 Servant To The Slave.wav
Peak level 100.0 %
Extraction speed 3.8 X
Track quality 100.0 %
Copy CRC 3849DDCC
Cannot be verified as accurate (confidence 6) [7D797734], AccurateRip returned [0F740CCE]
Copy OK
No tracks could be verified as accurate
You may have a different pressing from the one(s) in the database
No errors occurred
End of status report
FileSonic.com
Turbobit.net



Alternative download links

DOWNLOAD

Related MP3 FLAC to Capercaillie - Delirium (1991)
Feedback
All rights reserved.
WEBBG.com © 2000-2018