Slade - Nobodys Fools Remaster 2007, Extra tracks (1976)
MP3 FLAC WMA APE HD

Slade - Nobodys Fools Remaster 2007, Extra tracks (1976)

Artist: Slade
Title Of Album: Nobody's Fools [Remaster 2007, Extra tracks]
Year Of Release: 1976
Label: Salvo, SALVOCD005
Genre: Hard/Glam/Pop Rock
Quality: Lossless | MP3
Bitrate: FLAC image + cue | 320 kbps CBR
Total Time: 00:57:10
Total Size: 407/138 MB (+3%)
The album was the band's first album that showed dropping their 'loud' and 'rocky' type songs, and move towards a more 'American' soul/pop sound. British fans accused Noddy Holder and Jim Lea as 'selling out'. However, when singer Noddy Holder was asked for his favourite Slade album he stated "my favourite Slade album would be 'Nobody's fools'. That is the only one I can really sit down at home and listen to from start to finish". Being stylistically diverse as possible, the album includes hits "Let's Call It Quits" and "In for a Penny".
Tracklist
1. Nobody's Fool [04:39]
2. Do The Dirty [04:42]
3. Let's Call It Quits [03:30]
4. Pack Up Your Troubles [03:24]
5. In For A Penny [03:35]
6. Get On Up [03:26]
7. L.A. Jinx [03:58]
8. Did Ya Mama Ever Tell Ya [03:06]
9. Scratch My Back [03:06]
10. I'm A Talker [03:18]
11. All The World Is A Stage [03:56]
12. Thanks For The Memory (Bonus) [04:34]
13. Raining In My Champagne (Bonus) [04:10]
14. Can You Just Imagine (Bonus) [03:32]
15. When The Chips Are Down (Bonus) [04:14]
Total time 00:57:10
Exact Audio Copy V0.99 prebeta 5 from 4. May 2009
Отчёт EAC об извлечении, выполненном 14. декабря 2010, 20:11
Slade / Nobody's Fools
Дисковод: _NEC DVD_RW ND-4550A Adapter: 4 ID: 0
Режим чтения : Достоверность
Использование точного потока : Да
Отключение кэша аудио : Да
Использование указателей C2 : Нет
Коррекция смещения при чтении : 48
Способность читать области Lead-in и Lead-out : Нет
Заполнение пропущенных сэмплов тишиной : Да
Удаление блоков с тишиной в начале и конце : Нет
При вычислениях CRC использовались нулевые сэмплы : Да
Интерфейс : Встроенный Win32-интерфейс для Win NT/2000
Выходной формат : Внутренние WAV-операции
Формат сэмплов : 44.100 Гц; 16 бит; стерео
TOC извлечённого CD
Трек | Старт | Длительность | Начальный сектор | Конечный сектор
---------------------------------------------------------------------
1 | 0:00.00 | 4:39.51 | 0 | 20975
2 | 4:39.51 | 4:42.15 | 20976 | 42140
3 | 9:21.66 | 3:30.67 | 42141 | 57957
4 | 12:52.58 | 3:24.22 | 57958 | 73279
5 | 16:17.05 | 3:35.31 | 73280 | 89435
6 | 19:52.36 | 3:26.57 | 89436 | 104942
7 | 23:19.18 | 3:58.10 | 104943 | 122802
8 | 27:17.28 | 3:06.18 | 122803 | 136770
9 | 30:23.46 | 3:06.45 | 136771 | 150765
10 | 33:30.16 | 3:18.26 | 150766 | 165641
11 | 36:48.42 | 3:56.17 | 165642 | 183358
12 | 40:44.59 | 4:34.24 | 183359 | 203932
13 | 45:19.08 | 4:10.69 | 203933 | 222751
14 | 49:30.02 | 3:32.53 | 222752 | 238704
15 | 53:02.55 | 4:13.65 | 238705 | 257744
Характеристики диапазона извлечения и сообщения об ошибках
Выбранный диапазон
Имя файла C:TempSlade - Nobody's Fools.wav
Пиковый уровень 98.4 %
Качество диапазона 100.0 %
CRC копии 8C2875F3
Копирование... OK
Ошибок не произошло
Конец отчёта
Personnel
* Noddy Holder - lead vocals, rhythm guitar
* Dave Hill - lead guitar
* Jim Lea - bass guitar / piano
* Don Powell - drums
* Paul Prestotino - dobro guitar
* Tasha Thomas - backing vocals
Download:
(filesonic.com)
| | |
(hotfile.com)
| | |
(letitbit.net)
| | |
(fileserve.com)
| | |

Download MP3:
, ,




Alternative download links

Download part 1 Download part 2 Download part 3 Download part 4 Download part 1 Download part 2 Download part 3 Download part 4 Download part 1 Download part 2 Download part 3 Download part 4 hotfile.com letitbit.net

Related MP3 FLAC to Slade - Nobodys Fools Remaster 2007, Extra tracks (1976)
Feedback
All rights reserved.
WEBBG.com © 2000-2018