N.O.H.A. - Dive In Your Life (2007)
MP3 FLAC WMA APE HD

N.O.H.A. - Dive In Your Life (2007)

Artist: N.O.H.A.
Title Of Album: Dive In Your Life
Year Of Release: 2007
Label: Unique
Genre: Breaks, Future Jazz, Downtempo, Drum & Bass
Quality: FLAC (tracks + log) / MP3
Bitrate: lossless / 320kbps
Total Time: 1:02:15 min
Total Size: 400 mb/143 mb (+5% recovery)
Tracklist:
01. Dive In Your Life
02. More Pepper
03. Tu Cafe
04. Gipsy Valley
05. Saxomat
06. Flat
07. Pijama
08. Base From Above
09. No Es Perfecta
10. Smel Of Spring
11. Lunatica
12. Lunatica In The Live Version
Exact Audio Copy V0.99 prebeta 4 from 23. January 2008
EAC extraction logfile from 16. September 2009, 21:12
N.O.H.A. / Dive In Your Life
Used drive : PIONEER DVD-RW DVR-216D Adapter: 0 ID: 0
Read mode : Secure
Utilize accurate stream : Yes
Defeat audio cache : Yes
Make use of C2 pointers : No
Read offset correction : 96
Overread into Lead-In and Lead-Out : No
Fill up missing offset samples with silence : Yes
Delete leading and trailing silent blocks : No
Null samples used in CRC calculations : Yes
Used interface : Installed external ASPI interface
Gap handling : Appended to previous track
Used output format : User Defined Encoder
Selected bitrate : 768 kBit/s
Quality : High
Add ID3 tag : No
Command line compressor : C:Program FilesExact Audio CopyFLACFLAC.EXE
Additional command line options : -V -8 -T "artist=%a" -T "title=%t" -T "album=%g" -T "date=%y" -T "tracknumber=%n" -T "genre=%m" %s
TOC of the extracted CD
Track | Start | Length | Start sector | End sector
---------------------------------------------------------
1 | 0:02.00 | 4:15.63 | 150 | 19337
2 | 4:17.63 | 4:34.51 | 19338 | 39938
3 | 8:52.39 | 4:07.36 | 39939 | 58499
4 | 13:00.00 | 5:41.34 | 58500 | 84108
5 | 18:41.34 | 5:41.03 | 84109 | 109686
6 | 24:22.37 | 5:21.07 | 109687 | 133768
7 | 29:43.44 | 5:46.27 | 133769 | 159745
8 | 35:29.71 | 5:02.34 | 159746 | 182429
9 | 40:32.30 | 6:28.62 | 182430 | 211591
10 | 47:01.17 | 4:29.41 | 211592 | 231807
11 | 51:30.58 | 4:47.58 | 231808 | 253390
12 | 56:18.41 | 5:58.04 | 253391 | 280244
Track 1
Filename G:DownloadN.O.H.A2007 Dive In Your Life1 - Dive In Your Life.wav
Pre-gap length 0:00:04.00
Peak level 99.9 %
Track quality 100.0 %
Test CRC 2F8470FF
Copy CRC 2F8470FF
Track not present in AccurateRip database
Copy OK
Track 2
Filename G:DownloadN.O.H.A2007 Dive In Your Life2 - More Pepper.wav
Pre-gap length 0:00:01.34
Peak level 99.9 %
Track quality 100.0 %
Test CRC 8586E89C
Copy CRC 8586E89C
Track not present in AccurateRip database
Copy OK
Track 3
Filename G:DownloadN.O.H.A2007 Dive In Your Life3 - Tu Cafй.wav
Peak level 99.9 %
Track quality 100.0 %
Test CRC ECED6F66
Copy CRC ECED6F66
Track not present in AccurateRip database
Copy OK
Track 4
Filename G:DownloadN.O.H.A2007 Dive In Your Life4 - Gipsy Valley.wav
Pre-gap length 0:00:04.28
Peak level 99.9 %
Track quality 100.0 %
Test CRC 19E6082B
Copy CRC 19E6082B
Track not present in AccurateRip database
Copy OK
Track 5
Filename G:DownloadN.O.H.A2007 Dive In Your Life5 - Saxomat.wav
Pre-gap length 0:00:06.40
Peak level 99.5 %
Track quality 99.9 %
Test CRC 7217E449
Copy CRC 7217E449
Track not present in AccurateRip database
Copy OK
Track 6
Filename G:DownloadN.O.H.A2007 Dive In Your Life6 - Float.wav
Peak level 99.9 %
Track quality 99.9 %
Test CRC 1E0909A7
Copy CRC 1E0909A7
Track not present in AccurateRip database
Copy OK
Track 7
Filename G:DownloadN.O.H.A2007 Dive In Your Life7 - Pijama.wav
Peak level 99.9 %
Track quality 99.9 %
Test CRC C3982452
Copy CRC C3982452
Track not present in AccurateRip database
Copy OK
Track 8
Filename G:DownloadN.O.H.A2007 Dive In Your Life8 - Base From Above.wav
Peak level 99.9 %
Track quality 100.0 %
Test CRC C1A108FA
Copy CRC C1A108FA
Track not present in AccurateRip database
Copy OK
Track 9
Filename G:DownloadN.O.H.A2007 Dive In Your Life9 - No Es Perfecta.wav
Pre-gap length 0:00:01.53
Peak level 99.9 %
Track quality 99.9 %
Test CRC 97062978
Copy CRC 97062978
Track not present in AccurateRip database
Copy OK
Track 10
Filename G:DownloadN.O.H.A2007 Dive In Your Life10 - Smell Of Spring.wav
Pre-gap length 0:00:04.42
Peak level 99.9 %
Track quality 100.0 %
Test CRC 9C01688F
Copy CRC 9C01688F
Track not present in AccurateRip database
Copy OK
Track 11
Filename G:DownloadN.O.H.A2007 Dive In Your Life11 - Lunatica.wav
Pre-gap length 0:00:06.44
Peak level 84.9 %
Track quality 100.0 %
Test CRC 0898B445
Copy CRC 0898B445
Track not present in AccurateRip database
Copy OK
Track 12
Filename G:DownloadN.O.H.A2007 Dive In Your Life12 - Lunatica In The Live Version.wav
Peak level 99.9 %
Track quality 100.0 %
Test CRC 21F3CF07
Copy CRC 21F3CF07
Track not present in AccurateRip database
Copy OK
None of the tracks are present in the AccurateRip database
No errors occurred
End of status report
Download




Alternative download links

Uploaded

Related MP3 FLAC to N.O.H.A. - Dive In Your Life (2007)
Feedback
All rights reserved.
WEBBG.com © 2000-2018