The Sons of Erin - At it Agin (1991)
MP3 FLAC WMA APE HD

The Sons of Erin - At it Agin (1991)

Artist: The Sons of Erin
Title Of Album: At it Agin'
Year Of Release: 1991
Label: Erinson music
Genre: Irish Folk
Quality: FLAC (image+.cue) + log
Bitrate: Lossless
Total Time: 45:12
Total Size: 256 Mb
It is said the Sons of Erin have been Newfoundland's darlings since 1969. Ralph O'Brien is the only original member left in the band, which was formed in 1967, but it hasn't missed a beat since its inception. The band is the house band at Erin's Pub in St. John's, has never been in hiatus, and has never seen a time when the band wasn't playing.
Tracklist:
01. Home Boys Home 03:12
02. Red Rose Cafe 05:36
03. Song For Ireland 04:25
04. Up The Kingdom 02:50
05. I Wish I Had Someone 02:37
06. Holy Ground 02:55
07. Mary Of The Wild Moor 02:42
08. Big John McNeil 02:09
09. Grace 04:07
10. Take Her In Your Arms 03:17
11. Sam Hill 03:55
12. The Crack Was Ninety In The Isle Of Mann 02:55
Exact Audio Copy V0.99 prebeta 4 from 23. January 2008
Отчёт EAC об извлечении, выполненном 11. мая 2011, 14:35
The Sons of Erin / At it Agin'
Дисковод: HL-DT-STDVDRAM GE20NU10 Adapter: 5 ID: 0
Режим чтения : Достоверность
Использование точного потока : Да
Отключение кэша аудио : Да
Использование указателей C2 : Нет
Коррекция смещения при чтении : 667
Способность читать области Lead-in и Lead-out : Нет
Заполнение пропущенных сэмплов тишиной : Да
Удаление блоков с тишиной в начале и конце : Нет
При вычислениях CRC использовались нулевые сэмплы : Да
Интерфейс : Встроенный Win32-интерфейс для Win NT/2000
Выходной формат : Пользовательский кодировщик
Выбранный битрейт : 384 kBit/s
Качество : Высокий
Добавление ID3-тэга : Нет
Утилита сжатия : C:Program FilesExact Audio CopyFLACFLAC.EXE
Дополнительные параметры : -6 -V -T "ARTIST=%a" -T "TITLE=%t" -T "ALBUM=%g" -T "DATE=%y" -T "TRACKNUMBER=%n" -T "GENRE=%m" -T "COMMENT=%e" %s -o %d
TOC извлечённого CD
Трек | Старт | Длительность | Начальный сектор | Конечный сектор
---------------------------------------------------------------------
1 | 0:00.00 | 3:11.57 | 0 | 14381
2 | 3:11.57 | 5:36.28 | 14382 | 39609
3 | 8:48.10 | 4:24.60 | 39610 | 59469
4 | 13:12.70 | 2:49.42 | 59470 | 72186
5 | 16:02.37 | 2:36.40 | 72187 | 83926
6 | 18:39.02 | 2:55.03 | 83927 | 97054
7 | 21:34.05 | 2:41.65 | 97055 | 109194
8 | 24:15.70 | 2:08.45 | 109195 | 118839
9 | 26:24.40 | 4:06.67 | 118840 | 137356
10 | 30:31.32 | 3:16.70 | 137357 | 152126
11 | 33:48.27 | 3:54.33 | 152127 | 169709
12 | 37:42.60 | 2:54.42 | 169710 | 182801
13 | 40:37.27 | 4:32.23 | 182802 | 203224
Характеристики диапазона извлечения и сообщения об ошибках
Выбранный диапазон
Имя файла K:LosslessThe Sons of Erin - At it Agin'.wav
Пиковый уровень 97.7 %
Качество диапазона 99.9 %
CRC копии CBC764B5
Копирование... OK
Ошибок не произошло
Конец отчёта
FileSonic
Turbobit



Alternative download links

DOWNLOAD

Related MP3 FLAC to The Sons of Erin - At it Agin (1991)
Feedback
All rights reserved.
WEBBG.com © 2000-2018