Solitudes - Thunderstorm (2004)
MP3 FLAC WMA APE HD

Solitudes - Thunderstorm (2004)

Artist: Solitudes
Title Of Album: Thunderstorm
Year Of Release: 2004
Label: USA
Genre: New age
Quality: FLAC (image+.cue) + log
Bitrate: Lossless
Total Time: 52:39
Total Size: 243 Mb
Sounds of nature.
Tracklist:
1. Track 1 (2:14)
2. Track 2 (17:32)
3. Track 3 (2:49)
4. Track 4 (10:26)
5. Track 5 (7:46)
6. Track 6 (4:00)
7. Track 7 (7:51)
Exact Audio Copy V0.99 prebeta 5 from 4. May 2009
EAC extraction logfile from 14. November 2010, 13:44
Solitudes / Thunderstorm
Used drive : PLEXTOR DVDR PX-760A Adapter: 1 ID: 0
Read mode : Secure
Utilize accurate stream : Yes
Defeat audio cache : Yes
Make use of C2 pointers : No
Read offset correction : 30
Overread into Lead-In and Lead-Out : No
Fill up missing offset samples with silence : Yes
Delete leading and trailing silent blocks : No
Null samples used in CRC calculations : Yes
Used interface : Native Win32 interface for Win NT & 2000
Used output format : User Defined Encoder
Selected bitrate : 768 kBit/s
Quality : High
Add ID3 tag : No
Command line compressor : C:Program Files (x86)Exact Audio CopyFLACFLAC.EXE
Additional command line options : -8 -V %s
TOC of the extracted CD
Track | Start | Length | Start sector | End sector
---------------------------------------------------------
1 | 0:00.00 | 2:14.03 | 0 | 10052
2 | 2:14.03 | 17:32.37 | 10053 | 88989
3 | 19:46.40 | 2:48.43 | 88990 | 101632
4 | 22:35.08 | 10:26.27 | 101633 | 148609
5 | 33:01.35 | 7:46.33 | 148610 | 183592
6 | 40:47.68 | 3:59.62 | 183593 | 201579
7 | 44:47.55 | 7:51.32 | 201580 | 236936
Range status and errors
Selected range
Filename D:SOLITUDES [2004] [SACD] Thunderstorm [DSD-FLAC]Solitudes - Thunderstorm.wav
Peak level 75.7 %
Range quality 100.0 %
Copy CRC 538F268E
Copy OK
No errors occurred
AccurateRip summary
Track 1 accurately ripped (confidence 3) [5589B769]
Track 2 accurately ripped (confidence 3) [5CC08144]
Track 3 accurately ripped (confidence 3) [7EFF95D9]
Track 4 accurately ripped (confidence 3) [B5DD1ACE]
Track 5 accurately ripped (confidence 3) [FB1B648C]
Track 6 accurately ripped (confidence 3) [4487E0C7]
Track 7 accurately ripped (confidence 3) [9CB31F9E]
All tracks accurately ripped
End of status report
FileSonic.com
Turbobit.net



Alternative download links

DOWNLOAD

Related MP3 FLAC to Solitudes - Thunderstorm (2004)
Feedback
All rights reserved.
WEBBG.com © 2000-2018