Ransom - Ransom (1991)
MP3 FLAC WMA APE HD

Ransom - Ransom (1991)

Free download links


Ransom - Ransom (1991) .zip
MP3 version ZIP archive

1491 downloads at 30 mb/s

Ransom - Ransom (1991) .zip
FLAC/APE version ZIP archive

943 downloads at 22 mb/s
Artist: Ransom
Title Of Album: Ransom
Year Of Release: 1991
Label: Intense
Genre: Hard rock
Quality: APE (image+.cue) + log
Bitrate: Lossless
Total Time: 47:01
Total Size: 304 Mb
Ransom is a christian hard rock/metal band from the late 80’s/early 90’s, fronted by female vocalist Lisa Faxon. They released 2 albums, the first was simply called Ransom, and the second Soul Asylum.
Tracklist:
01. Lasting Love
02. Rumors
03. Memories of You
04. Fool That I Am
05. Break into Darkness
06. Tonight
07. Etched in Stone
08. Fallen Angel
09. Your Broken Heart
10. I'll Never Leave You
11. When I Die
Exact Audio Copy V0.99 prebeta 4 from 23. January 2008
EAC extraction logfile from 7. May 2011, 20:28
Ransom / Ransom
Used drive : PIONEER DVD-RW DVR-212 Adapter: 5 ID: 0
Read mode : Secure
Utilize accurate stream : Yes
Defeat audio cache : Yes
Make use of C2 pointers : No
Read offset correction : 48
Overread into Lead-In and Lead-Out : No
Fill up missing offset samples with silence : Yes
Delete leading and trailing silent blocks : No
Null samples used in CRC calculations : Yes
Used interface : Native Win32 interface for Win NT & 2000
Used output format : Internal WAV Routines
Sample format : 44.100 Hz; 16 Bit; Stereo
TOC of the extracted CD
Track | Start | Length | Start sector | End sector
---------------------------------------------------------
1 | 0:00.50 | 4:28.37 | 50 | 20186
2 | 4:29.12 | 4:23.50 | 20187 | 39961
3 | 8:52.62 | 4:19.70 | 39962 | 59456
4 | 13:12.57 | 4:27.20 | 59457 | 79501
5 | 17:40.02 | 5:03.43 | 79502 | 102269
6 | 22:43.45 | 4:17.45 | 102270 | 121589
7 | 27:01.15 | 3:43.65 | 121590 | 138379
8 | 30:45.05 | 5:08.55 | 138380 | 161534
9 | 35:53.60 | 3:58.40 | 161535 | 179424
10 | 39:52.25 | 4:32.45 | 179425 | 199869
11 | 44:24.70 | 2:35.52 | 199870 | 211546
Range status and errors
Selected range
Filename D:tempRansom - Ransom.wav
Peak level 100.0 %
Range quality 100.0 %
Copy CRC D4D10F30
Copy OK
No errors occurred
AccurateRip summary
Track 1 accurately ripped (confidence 2) [68530DF0]
Track 2 accurately ripped (confidence 2) [27D14943]
Track 3 accurately ripped (confidence 2) [C0E13F71]
Track 4 accurately ripped (confidence 2) [B8DFC02F]
Track 5 accurately ripped (confidence 2) [B439E428]
Track 6 accurately ripped (confidence 2) [CF101BFD]
Track 7 accurately ripped (confidence 2) [5137C11B]
Track 8 accurately ripped (confidence 2) [88DF2497]
Track 9 accurately ripped (confidence 2) [9C51E7AD]
Track 10 accurately ripped (confidence 2) [DCAE0D57]
Track 11 accurately ripped (confidence 2) [995CC46E]
All tracks accurately ripped
End of status report
FileSonic
Turbobit



Alternative download links

DOWNLOAD

Related MP3 FLAC to Ransom - Ransom (1991)
Feedback
All rights reserved.
WEBBG.com © 2000-2018